Subcategories

Fruupp - Future Legends (1973) [Reissue 2009]

Posted By: gribovar
Fruupp - Future Legends (1973) [Reissue 2009]

Fruupp - Future Legends (1973) [Reissue 2009]
EAC Rip | FLAC (image+.cue+log) - 323 MB | MP3 CBR 320 kbps (LAME 3.93) - 160 MB | Covers includes
Genre: Progressive Rock | RAR 3% Rec. | Label: Esoteric Recordings (ECLEC2104)

Originally released in October 1973 on Pye's Dawn label, Future Legends was the debut release by these Northern Irish Progressive Rock masters. A wonderful exercise in Symphonic and Melodic rock, the album was highly acclaimed upon release launching the band on a live career that saw them share the bill with such luminaries as Genesis (with whom they were often compared). Future Legends is now remastered from the original tapes and includes the track 'On a Clear Day' which only featured on the first 100 copies of the album.
Tracklist:
01. Future Legends
02. Decision
03. As Day Breaks with Dawn
04. Graveyard Epistle
05. Lord of the Incubus
06. Olde Tyme Future
07. Song for a Thought
08. Future Legends
09. On a Clear Day (Bonus track)

Total time: 47:25

Exact Audio Copy V0.99 prebeta 4 from 23. January 2008

EAC extraction logfile from 4. August 2011, 21:50

Fruupp / Future Legends (1973)

Used drive : TSSTcorpCDDVDW TS-L633C Adapter: 0 ID: 1

Read mode : Secure
Utilize accurate stream : Yes
Defeat audio cache : Yes
Make use of C2 pointers : No

Read offset correction : 6
Overread into Lead-In and Lead-Out : No
Fill up missing offset samples with silence : Yes
Delete leading and trailing silent blocks : No
Null samples used in CRC calculations : Yes
Used interface : Native Win32 interface for Win NT & 2000

Used output format : User Defined Encoder
Selected bitrate : 1024 kBit/s
Quality : High
Add ID3 tag : No
Command line compressor : C:\Program Files\FLAC\flac.exe
Additional command line options : -8 -V -T "ARTIST=%a" -T "TITLE=%t" -T "ALBUM=%g" -T "DATE=%y" -T "TRACKNUMBER=%n" -T "GENRE=%m" -T "COMMENT=%e" %s -o %d


TOC of the extracted CD

Track | Start | Length | Start sector | End sector
––––––––––––––––––––––––––––-
1 | 0:00.00 | 1:31.38 | 0 | 6862
2 | 1:31.38 | 6:25.45 | 6863 | 35782
3 | 7:57.08 | 5:00.72 | 35783 | 58354
4 | 12:58.05 | 6:15.02 | 58355 | 86481
5 | 19:13.07 | 6:25.25 | 86482 | 115381
6 | 25:38.32 | 5:36.46 | 115382 | 140627
7 | 31:15.03 | 7:30.17 | 140628 | 174394
8 | 38:45.20 | 0:53.67 | 174395 | 178436
9 | 39:39.12 | 7:46.05 | 178437 | 213391


Range status and errors

Selected range

Filename C:\Documents and Settings\Рабочий стол\1 - Future Legends\Fruupp - Future Legends (1973).wav

Peak level 99.4 %
Range quality 100.0 %
Test CRC DD9EE9AC
Copy CRC DD9EE9AC
Copy OK

No errors occurred


AccurateRip summary

Track 1 accurately ripped (confidence 2) [2CCCAED8]
Track 2 accurately ripped (confidence 2) [6B73A08E]
Track 3 accurately ripped (confidence 2) [0B35CC45]
Track 4 accurately ripped (confidence 2) [35B5D1C3]
Track 5 accurately ripped (confidence 2) [D5D31A8D]
Track 6 accurately ripped (confidence 2) [637180C3]
Track 7 accurately ripped (confidence 2) [9D12D84F]
Track 8 accurately ripped (confidence 2) [4620B7C8]
Track 9 accurately ripped (confidence 2) [B9A5F39D]

All tracks accurately ripped

End of status report

Thanks to jsBah

More Esoteric Recordings' releases from my blog:
Esoteric Recordings
LOSSLESS:

Filepost.com
________________

MP3 320 kbps:

Filepost.com