Subcategories

Goose Creek Symphony - s/t (1970) {2000 EMI-Capitol Music Special Products} **[RE-UP]**

Posted By: TestTickles
Goose Creek Symphony - s/t (1970) {2000 EMI-Capitol Music Special Products} **[RE-UP]**

Goose Creek Symphony - s/t (1970) {2000 EMI-Capitol Music Special Products}
EAC Rip | FLAC with CUE and log | scans | 258 mb
MP3 CBR 320kbps | RAR | 103 mb
Genre: country rock, country, folk, classic rock

Goose Creek Symphony is the 1970 album by the Goose Creek Symphony. Released in Capitol Records, some had erroneously called it Est. 1970 due to the handwriting on the front cover, but that was part of the image, not the actual title. although it was given that title on the CD reissue. The band consisted of Ritchie Hart, Bob Henke III, Paul Howard, Mike McFadden, and Dave Birkett. This comes from a CD released in 2000 by EMI-Capitol Music Special Products.
If the Grateful Dead had come from Kentucky instead of San Francisco, they might have sounded much like these guys. "This song might sound kinda strange, but it's got more soul than Home on the Range," they accurately sing in "Talk About Goose Creek and Other Important Places," an eight-minute psychedelic showstopper complete with Beatles-style tape tricks. This album is a fun listen that can suck even a city slicker into a stoned, good-time, backhills vibe.

Goose Creek Symphony - s/t (1970) {2000 EMI-Capitol Music Special Products} **[RE-UP]**

1 I'll Fly Away (1:19)
2 Charlie's Tune (4:37)
3 A Statified Mind (3:25)
4 Confusion (3:29)
5 No News Is Good News (3:55)
6 Talk About Goose Creek And Other Important Places (8:21)
7 Beautiful Bertha (3:08)
8 Raid On Bush Creek In '39 (1:41)
9 Big Time Saturday Night (3:33)
10 Symphony Music (4:49)

EAC extraction logfile from 7. July 2006, 10:06 for CD
Goose Creek Symphony / est. 1970

Used drive : TOSHIBA CD/DVDW SD-R5372 Adapter: 2 ID: 2
Read mode : Secure with NO C2, accurate stream, disable cache
Read offset correction : 708
Overread into Lead-In and Lead-Out : No

Used output format : D:\Program Files\FLAC\flac.exe (User Defined Encoder)
320 kBit/s
Additional command line options : -5 -V -T "ARTIST=%a" -T "TITLE=%t" -T "ALBUM=%g" -T "DATE=%y" -T "TRACKNUMBER=%n" -T "GENRE=%m" -T "COMMENT=EAC Flac 1.1.2 -5" %s

Other options :
Fill up missing offset samples with silence : Yes
Delete leading and trailing silent blocks : No
Installed external ASPI interface


Track 1
Filename C:\FLAC\Goose Creek Symphony - Est. 1970 (1970) [FLAC] {2000 EMI-Capitol Music Special Products}\01 - I'll Fly Away.wav

Pre-gap length 0:00:02.42

Peak level 72.0 %
Track quality 100.0 %
Test CRC 4B563D15
Copy CRC 4B563D15
Copy OK

Track 2
Filename C:\FLAC\Goose Creek Symphony - Est. 1970 (1970) [FLAC] {2000 EMI-Capitol Music Special Products}\02 - Charlie's Tune.wav

Peak level 100.0 %
Track quality 100.0 %
Test CRC 4F939C39
Copy CRC 4F939C39
Copy OK

Track 3
Filename C:\FLAC\Goose Creek Symphony - Est. 1970 (1970) [FLAC] {2000 EMI-Capitol Music Special Products}\03 - A Satisfied Mind.wav

Pre-gap length 0:00:03.22

Peak level 82.1 %
Track quality 99.9 %
Test CRC F0C11ED1
Copy CRC F0C11ED1
Copy OK

Track 4
Filename C:\FLAC\Goose Creek Symphony - Est. 1970 (1970) [FLAC] {2000 EMI-Capitol Music Special Products}\04 - Confusion.wav

Pre-gap length 0:00:00.30

Peak level 88.5 %
Track quality 100.0 %
Test CRC 97021403
Copy CRC 97021403
Copy OK

Track 5
Filename C:\FLAC\Goose Creek Symphony - Est. 1970 (1970) [FLAC] {2000 EMI-Capitol Music Special Products}\05 - No News Is Good News.wav

Pre-gap length 0:00:00.13

Peak level 98.7 %
Track quality 99.9 %
Test CRC 99982EA8
Copy CRC 99982EA8
Copy OK

Track 6
Filename C:\FLAC\Goose Creek Symphony - Est. 1970 (1970) [FLAC] {2000 EMI-Capitol Music Special Products}\06 - Talk About Goose Creek And Other Important Places.wav

Pre-gap length 0:00:02.20

Peak level 100.0 %
Track quality 100.0 %
Test CRC DC58DDBE
Copy CRC DC58DDBE
Copy OK

Track 7
Filename C:\FLAC\Goose Creek Symphony - Est. 1970 (1970) [FLAC] {2000 EMI-Capitol Music Special Products}\07 - Beautiful Bertha.wav

Peak level 98.3 %
Track quality 100.0 %
Test CRC D4F90EB0
Copy CRC D4F90EB0
Copy OK

Track 8
Filename C:\FLAC\Goose Creek Symphony - Est. 1970 (1970) [FLAC] {2000 EMI-Capitol Music Special Products}\08 - Raid On Brush Creek In '39.wav

Pre-gap length 0:00:00.33

Peak level 81.9 %
Track quality 100.0 %
Test CRC 344F3AD6
Copy CRC 344F3AD6
Copy OK

Track 9
Filename C:\FLAC\Goose Creek Symphony - Est. 1970 (1970) [FLAC] {2000 EMI-Capitol Music Special Products}\09 - Big Time Saturday Night.wav

Peak level 81.7 %
Track quality 100.0 %
Test CRC 276BD233
Copy CRC 276BD233
Copy OK

Track 10
Filename C:\FLAC\Goose Creek Symphony - Est. 1970 (1970) [FLAC] {2000 EMI-Capitol Music Special Products}\10 - Symphony Music.wav

Pre-gap length 0:00:00.37

Peak level 64.4 %
Track quality 99.9 %
Test CRC 3BB05039
Copy CRC 3BB05039
Copy OK

No errors occured


End of status report


Goose Creek Symphony - s/t (1970) {2000 EMI-Capitol Music Special Products} **[RE-UP]**


Thank you to the original uploader