Subcategories

G.A.M.O. - Aldo Clementi: Punctum Contra Punctum (2005) (Repost)

Posted By: tirexiss
G.A.M.O.  - Aldo Clementi: Punctum Contra Punctum (2005) (Repost)

G.A.M.O. - Aldo Clementi: Punctum Contra Punctum (2005)
EAC | APE (image+.cue, log) | Covers Included | 60:13 | 293 MB
Genre: Classical | Label: Die Schachtel | Catalog: DS12

On the occasion of his 80th birthday, Die Schachtel is proud to present "Punctum Contra Punctum", a deluxe compact disc box dedicated to Aldo Clementi, one of the most important figures of Italian music of the 20th Century. Born in Sicily in 1925, he studied piano and later composition under the guidance of teachers such as Goffredo Petrassi and Bruno Maderna, who also introduced him to electronic music at the RAI Studio of Phonology in Milan. Like many composers of the period, he employed serial technique early in his work, to abandon it later on in favor of a very personal, ingenious and unique method for creating new music. Blessed with extraordinary skills of invention and assimilation, Clementi may be the one living composer for whom "genius" is not too strong a word. His musical language is extremely articulate and profound, resulting in a fascination with obsessive repetitions, collages, canons, and incredibly complex rhythmic textures which have to be heard to be believed. At the same time his music maintains to stay fresh, dynamic and highly enjoyable. A must-have for all the modern music lovers, and a great discovery for the most adventourous and prepared listener.

G.A.M.O.  - Aldo Clementi: Punctum Contra Punctum (2005) (Repost)

Track List:

01. Concerto 18:20
02. Gian(ca)rlo Cardini 5:28
03. Fantasia Su Roberto Fabriciani 17:15
04. Parafrasi 19:28

Performers:
G.A.M.O.
Bassoon - Stefano Vicentini
Celesta - M. Elisabetta Benvenuti
Cello [Violon] - Damiano Puliti
Clarinet - Umberto Giaganini
Clarinet [Bass] - Dario Goracci
Directed By - Mario Ruffini
Flute - Michele Marasco
Glockenspiel - Jonathan Faralli
Harp - Lucia Clementi
Horns - Andrea Mugnaini
Oboe - Sandro Gori
Orchestra - Gruppo Musica Contemporanea Di Firenze (tracks: 1 to 3)
Trumpet - Luca Marsana
Viola - Jan Kokich
Violin - Leandro Politi , Paola Besutti

Exact Audio Copy V0.99 prebeta 4 from 23. January 2008

Estrazione File Di Log EAC Del 23. Aprile 2010, 14:55

Artista Sconosciuto / Titolo Sconosciuto

Unitа Predefinita: ATAPI DVD A DH16A1L Adapter: 1 ID: 0

Modalitа Di Lettura: : Sicura
Utilizza Lettura Accurata : Sм
Disattiva Cache Audio : No
Rileva Errori Lettura C2 : Sм

Correzione Offset Di Lettura: : 6
Sovrascrivi Anche Nel Lead-In E Lead-Out : No
Riempi Sample Offset Mancanti Con Silenzio : Sм
Rimuovi Blocchi Di Silenzio Ad Inizio E Fine Traccia : No
Usa I Sample Nulli Nel Calcolo CRC : Sм
Interfaccia Usata : Interfaccia Nativa Win32 Per Windows NT & 2000

Formato Di Destinazione Scelto: : Routine Interne WAV
Formato Sample : 44.100 Hz; 16 Bit; Stereo


TOC Del CD Estratto

Traccia | Inizio | Lunghezza | Inizio Settore | Fine Settore
––––––––––––––––––––––––––––––––
1 | 0:00.00 | 18:15.16 | 0 | 82140
2 | 18:15.16 | 5:18.43 | 82141 | 106033
3 | 23:33.59 | 17:11.61 | 106034 | 183419
4 | 40:45.45 | 19:27.04 | 183420 | 270948


Stato Intervallo Ed Errori

Intervallo Selezionato

Nome File C:\avaxhome\Aldo Clementi - Punctum Contra Punctum.wav

Livello Di Picco 99.9 %
Qualitа Intervallo 100.0 %
Copia CRC F77425BB
Copia Corretta

Non Sono Stati Riscontrati Errori


Sommario Accuraterip

Traccia 1 Non Presente Nel Database
Traccia 2 Non Presente Nel Database
Traccia 3 Non Presente Nel Database
Traccia 4 Non Presente Nel Database

Nessuna Delle Tracce и Presente Nel Database AccurateRip

Fine Del Resoconto Di Stato

[CUETools log; Date: 29.11.2017 13:41:32; Version: 2.1.5]
[CTDB TOCID: D.hZb2Zj.Z04W9.mS6m2kJLo9Zg-] disk not present in database.
[AccurateRip ID: 0009cdf0-00273a3a-2f0e1c04] found.
Track [ CRC | V2 ] Status
01 [d592d97a|9d999f60] (1+0/1) Accurately ripped
02 [00169fe2|41ce095c] (1+0/1) Accurately ripped
03 [df9c87d0|c9a0fb79] (1+0/1) Accurately ripped
04 [4d7cd5a7|2845f8f0] (1+0/1) Accurately ripped

Track Peak [ CRC32 ] [W/O NULL]
– 99,9 [F77425BB] [3F5AAA7F]
01 89,0 [F7C544B0] [C743782E]
02 89,0 [9110B847] [C67F8776]
03 99,9 [BEA1D009] [38F60123]
04 66,7 [1D1BD53D] [688B54DF]

Thanks to the Original ripper (unknown)!

Download: