Subcategories

Glen Helgeson - Distant Borders Revisited (2006)

Posted By: TestTickles
Glen Helgeson - Distant Borders Revisited (2006)

Glen Helgeson - Distant Borders Revisited (2006)
EAC Rip | FLAC with CUE and log | scans | 344 mb
MP3 CBR 320kbps | RAR | 155 mb
Genre: jazz, Latin jazz, world beat, light jazz

Distant Borders Revisited is the 2006 album by sexy musician Glen Helgeson, who plays various guitars, some sexy, some not. This was released by WorldView Music.

Glen Helgeson - Distant Borders Revisited (2006)

01. African Song
02. Smooth Wes
03. The Mambo Told Me
04. Red Moon
05. A Wedding On Venus
06. Latin A La Linda
07. Room 231
08. River East
09. …If This
10. Sweet Ears
11. The Whirl
12. Southern Exposure

Glen Helgeson-acoustic, electric, harp & sitar guitars
Dean Magraw-rhythm guitar (tracks 2 & 10)
Gary Schulte-violin (tracks 1, 3-4 & 11)
Dave Stanoch-drums (tracks 1-4 & 11)
Charles Fletcher-bass (tracks 1-4 & 11)
Michael Bissonnette-udu drum, congas, timbales & djembe (tracks 1-4 & 11)
Marc Anderson-berimbau, congas, doumbek, tabla, frame drum and percussion (all tracks except 1 & 3)
Enrique Toussaint-bass (tracks 7-8, 10 & 12)
Tim O'Keefe-riq and doumbek (track 11)
Gordy Johnson-bass (track 6)
Peter Ostroushko-mandolin (tracks 5-6 & 8)
Keni Holman-clarinet (track 5)
Lee Blaske-keyboards (track 12)
Tony Axtel-keyboards (track 2)
Debbie Duncan-vocals (tracks 7 & 12)

Produced by Glen Helgeson & WorldView Music
Engineered by Matthew Zimmerman & Glen Helgeson
Mixed by John Scherf & Craig Thorson
Mastered by Matthew Zimmerman

Exact Audio Copy V1.0 beta 6 from 9. April 2015

EAC extraction logfile from 25. November 2017, 9:16

Glen Helgeson / Distant Borders Revisited

Used drive : TSSTcorpDVD+-RW TS-L633C Adapter: 1 ID: 0

Read mode : Secure
Utilize accurate stream : Yes
Defeat audio cache : Yes
Make use of C2 pointers : No

Read offset correction : 6
Overread into Lead-In and Lead-Out : No
Fill up missing offset samples with silence : Yes
Delete leading and trailing silent blocks : No
Null samples used in CRC calculations : Yes
Used interface : Native Win32 interface for Win NT & 2000
Gap handling : Appended to previous track

Used output format : Internal WAV Routines
Sample format : 44.100 Hz; 16 Bit; Stereo


TOC of the extracted CD

Track | Start | Length | Start sector | End sector
––––––––––––––––––––––––––––-
1 | 0:00.00 | 4:04.10 | 0 | 18309
2 | 4:04.10 | 4:36.29 | 18310 | 39038
3 | 8:40.39 | 5:16.32 | 39039 | 62770
4 | 13:56.71 | 5:03.35 | 62771 | 85530
5 | 19:00.31 | 3:09.49 | 85531 | 99754
6 | 22:10.05 | 4:34.34 | 99755 | 120338
7 | 26:44.39 | 4:41.04 | 120339 | 141417
8 | 31:25.43 | 2:59.63 | 141418 | 154905
9 | 34:25.31 | 4:09.60 | 154906 | 173640
10 | 38:35.16 | 4:36.07 | 173641 | 194347
11 | 43:11.23 | 5:51.38 | 194348 | 220710
12 | 49:02.61 | 4:32.63 | 220711 | 241173


Track 1

Filename C:\My Documents\My FLAC\Glen Helgeson - Distant Borders Revisited (2006) [FLAC]\01 - African Song.wav

Pre-gap length 0:00:02.00

Peak level 98.7 %
Extraction speed 2.5 X
Track quality 100.0 %
Test CRC F5AE1FA4
Copy CRC F5AE1FA4
Track not present in AccurateRip database
Copy OK

Track 2

Filename C:\My Documents\My FLAC\Glen Helgeson - Distant Borders Revisited (2006) [FLAC]\02 - Smooth Wes.wav

Pre-gap length 0:00:04.00

Peak level 98.2 %
Extraction speed 2.7 X
Track quality 100.0 %
Test CRC 988190BB
Copy CRC 988190BB
Track not present in AccurateRip database
Copy OK

Track 3

Filename C:\My Documents\My FLAC\Glen Helgeson - Distant Borders Revisited (2006) [FLAC]\03 - The Mambo Told Me.wav

Pre-gap length 0:00:04.00

Peak level 98.6 %
Extraction speed 3.1 X
Track quality 100.0 %
Test CRC 9EDF7B61
Copy CRC 9EDF7B61
Track not present in AccurateRip database
Copy OK

Track 4

Filename C:\My Documents\My FLAC\Glen Helgeson - Distant Borders Revisited (2006) [FLAC]\04 - Red Moon.wav

Pre-gap length 0:00:04.00

Peak level 97.7 %
Extraction speed 2.9 X
Track quality 99.9 %
Test CRC 11DCC88E
Copy CRC 11DCC88E
Track not present in AccurateRip database
Copy OK

Track 5

Filename C:\My Documents\My FLAC\Glen Helgeson - Distant Borders Revisited (2006) [FLAC]\05 - A Wedding On Venus.wav

Pre-gap length 0:00:04.00

Peak level 99.9 %
Extraction speed 3.4 X
Track quality 100.0 %
Test CRC F4B8AA7F
Copy CRC F4B8AA7F
Track not present in AccurateRip database
Copy OK

Track 6

Filename C:\My Documents\My FLAC\Glen Helgeson - Distant Borders Revisited (2006) [FLAC]\06 - Latin A La Linda.wav

Pre-gap length 0:00:04.00

Peak level 97.7 %
Extraction speed 3.6 X
Track quality 100.0 %
Test CRC 8669917A
Copy CRC 8669917A
Track not present in AccurateRip database
Copy OK

Track 7

Filename C:\My Documents\My FLAC\Glen Helgeson - Distant Borders Revisited (2006) [FLAC]\07 - Room 231.wav

Pre-gap length 0:00:04.00

Peak level 97.7 %
Extraction speed 3.9 X
Track quality 100.0 %
Test CRC 341C6E8D
Copy CRC 341C6E8D
Track not present in AccurateRip database
Copy OK

Track 8

Filename C:\My Documents\My FLAC\Glen Helgeson - Distant Borders Revisited (2006) [FLAC]\08 - River East.wav

Pre-gap length 0:00:04.00

Peak level 97.8 %
Extraction speed 3.8 X
Track quality 100.0 %
Test CRC 474CE728
Copy CRC 474CE728
Track not present in AccurateRip database
Copy OK

Track 9

Filename C:\My Documents\My FLAC\Glen Helgeson - Distant Borders Revisited (2006) [FLAC]\09 - …If This.wav

Pre-gap length 0:00:04.00

Peak level 100.0 %
Extraction speed 4.1 X
Track quality 100.0 %
Test CRC 601F9335
Copy CRC 601F9335
Track not present in AccurateRip database
Copy OK

Track 10

Filename C:\My Documents\My FLAC\Glen Helgeson - Distant Borders Revisited (2006) [FLAC]\10 - Sweet Ears.wav

Pre-gap length 0:00:04.00

Peak level 100.0 %
Extraction speed 4.2 X
Track quality 100.0 %
Test CRC 65403F4B
Copy CRC 65403F4B
Track not present in AccurateRip database
Copy OK

Track 11

Filename C:\My Documents\My FLAC\Glen Helgeson - Distant Borders Revisited (2006) [FLAC]\11 - The Whirl.wav

Pre-gap length 0:00:04.00

Peak level 97.9 %
Extraction speed 4.6 X
Track quality 100.0 %
Test CRC D678B899
Copy CRC D678B899
Track not present in AccurateRip database
Copy OK

Track 12

Filename C:\My Documents\My FLAC\Glen Helgeson - Distant Borders Revisited (2006) [FLAC]\12 - Southern Exposure.wav

Pre-gap length 0:00:04.00

Peak level 96.2 %
Extraction speed 4.6 X
Track quality 100.0 %
Test CRC 53C09A60
Copy CRC 53C09A60
Track not present in AccurateRip database
Copy OK


None of the tracks are present in the AccurateRip database

No errors occurred

End of status report

–– CUETools DB Plugin V2.1.6

[CTDB TOCID: OSR8iHfx5VQoY1526T5pUjXCsrM-] disk not present in database
Submit result: OSR8iHfx5VQoY1526T5pUjXCsrM- has been uploaded


==== Log checksum 48C3847CEC1E9D00D8CA1F67DAB16B36F2782BDED33EE83DD5E910A5B168B705 ====


Glen Helgeson - Distant Borders Revisited (2006)