Subcategories

The Green Pajamas - To The End Of The Sea (2016) {Green Monkey}

Posted By: TestTickles
The Green Pajamas - To The End Of The Sea (2016) {Green Monkey}

The Green Pajamas - To The End Of The Sea (2016) {Green Monkey}
EAC Rip | FLAC with CUE and log | scans | 328 mb
MP3 CBR 320kbps | RAR | 142 mb
Genre: indie rock, psychedelic rock

Seattle's The Green Pajamas released a new full length in 2016 and it's called To The End Of The Sea. The label that released this is Olympia, Washington's Green Monkey Records.

The Green Pajamas - To The End Of The Sea (2016) {Green Monkey}

01. Will The Ships Go Down
02. Si Sigues La Luna (If You Follow The Moon)
03. White Lighthouse
04. Sea Of Secrets 1
05. All Of The Starry Sky
06. Who Is The Girl
07. Madness To Burn
08. When Juliet Smiles
09. A Mouth Full Of Honey
10. Sea Of Secrets 2
11. Ten Million Light Years Away
12. Anyone But Me
13. Got To Go Away
14. Big Black Storm (Dusk)
15. (Dusk)
16. Why Did I Think I Could
17. Over here
18. Hasta Al Fin De La Mar (To The End Of The Sea)

The Green Pajamas - To The End Of The Sea (2016) {Green Monkey}


Exact Audio Copy V1.0 beta 6 from 9. April 2015

EAC extraction logfile from 16. May 2018, 10:35

The Green Pajamas / To The End Of The Sea

Used drive : TSSTcorpDVD+-RW TS-L633C Adapter: 1 ID: 0

Read mode : Secure
Utilize accurate stream : Yes
Defeat audio cache : Yes
Make use of C2 pointers : No

Read offset correction : 6
Overread into Lead-In and Lead-Out : No
Fill up missing offset samples with silence : Yes
Delete leading and trailing silent blocks : No
Null samples used in CRC calculations : Yes
Used interface : Native Win32 interface for Win NT & 2000
Gap handling : Appended to previous track

Used output format : Internal WAV Routines
Sample format : 44.100 Hz; 16 Bit; Stereo


TOC of the extracted CD

Track | Start | Length | Start sector | End sector
––––––––––––––––––––––––––––-
1 | 0:00.00 | 3:58.02 | 0 | 17851
2 | 3:58.02 | 0:50.53 | 17852 | 21654
3 | 4:48.55 | 1:24.43 | 21655 | 27997
4 | 6:13.23 | 2:24.41 | 27998 | 38838
5 | 8:37.64 | 2:19.74 | 38839 | 49337
6 | 10:57.63 | 1:23.40 | 49338 | 55602
7 | 12:21.28 | 1:06.54 | 55603 | 60606
8 | 13:28.07 | 3:12.60 | 60607 | 75066
9 | 16:40.67 | 1:24.59 | 75067 | 81425
10 | 18:05.51 | 3:12.56 | 81426 | 95881
11 | 21:18.32 | 3:59.73 | 95882 | 113879
12 | 25:18.30 | 6:43.42 | 113880 | 144146
13 | 32:01.72 | 0:58.58 | 144147 | 148554
14 | 33:00.55 | 1:49.43 | 148555 | 156772
15 | 34:50.23 | 1:12.53 | 156773 | 162225
16 | 36:03.01 | 2:20.42 | 162226 | 172767
17 | 38:23.43 | 2:14.03 | 172768 | 182820
18 | 40:37.46 | 2:05.19 | 182821 | 192214


Track 1

Filename C:\My Documents\My FLAC\The Green Pajamas - To The End Of The Sea (2016) [FLAC] {Green Monkey}\01 - Will The Ships Go Down.wav

Pre-gap length 0:00:02.00

Peak level 100.0 %
Extraction speed 2.0 X
Track quality 99.9 %
Test CRC 964417DA
Copy CRC 964417DA
Accurately ripped (confidence 1) [6BFB754B] (AR v2)
Copy OK

Track 2

Filename C:\My Documents\My FLAC\The Green Pajamas - To The End Of The Sea (2016) [FLAC] {Green Monkey}\02 - Si Sigues La Luna (If You Follow The Moon).wav

Peak level 72.9 %
Extraction speed 1.7 X
Track quality 100.0 %
Test CRC 4600CDB9
Copy CRC 4600CDB9
Accurately ripped (confidence 1) [F308EAF0] (AR v2)
Copy OK

Track 3

Filename C:\My Documents\My FLAC\The Green Pajamas - To The End Of The Sea (2016) [FLAC] {Green Monkey}\03 - White Lighthouse.wav

Peak level 100.0 %
Extraction speed 2.1 X
Track quality 100.0 %
Test CRC DF7106E4
Copy CRC DF7106E4
Accurately ripped (confidence 1) [A071EAE4] (AR v2)
Copy OK

Track 4

Filename C:\My Documents\My FLAC\The Green Pajamas - To The End Of The Sea (2016) [FLAC] {Green Monkey}\04 - Sea Of Secrets 1.wav

Peak level 100.0 %
Extraction speed 2.6 X
Track quality 100.0 %
Test CRC D8BAC4E9
Copy CRC D8BAC4E9
Accurately ripped (confidence 1) [FCC152B1] (AR v2)
Copy OK

Track 5

Filename C:\My Documents\My FLAC\The Green Pajamas - To The End Of The Sea (2016) [FLAC] {Green Monkey}\05 - All Of The Starry Sky.wav

Peak level 98.2 %
Extraction speed 2.5 X
Track quality 100.0 %
Test CRC 508B5CB4
Copy CRC 508B5CB4
Accurately ripped (confidence 1) [74AC9523] (AR v2)
Copy OK

Track 6

Filename C:\My Documents\My FLAC\The Green Pajamas - To The End Of The Sea (2016) [FLAC] {Green Monkey}\06 - Who Is The Girl.wav

Peak level 100.0 %
Extraction speed 2.3 X
Track quality 100.0 %
Test CRC FA2CDCF5
Copy CRC FA2CDCF5
Accurately ripped (confidence 1) [804C1B02] (AR v2)
Copy OK

Track 7

Filename C:\My Documents\My FLAC\The Green Pajamas - To The End Of The Sea (2016) [FLAC] {Green Monkey}\07 - Madness To Burn.wav

Peak level 100.0 %
Extraction speed 1.5 X
Track quality 99.8 %
Test CRC C855A43F
Copy CRC C855A43F
Accurately ripped (confidence 1) [55683158] (AR v2)
Copy OK

Track 8

Filename C:\My Documents\My FLAC\The Green Pajamas - To The End Of The Sea (2016) [FLAC] {Green Monkey}\08 - When Juliet Smiles.wav

Peak level 100.0 %
Extraction speed 3.1 X
Track quality 100.0 %
Test CRC AB962956
Copy CRC AB962956
Accurately ripped (confidence 1) [0EE71C05] (AR v2)
Copy OK

Track 9

Filename C:\My Documents\My FLAC\The Green Pajamas - To The End Of The Sea (2016) [FLAC] {Green Monkey}\09 - A Mouth Full Of Honey.wav

Peak level 100.0 %
Extraction speed 2.7 X
Track quality 100.0 %
Test CRC 798702B1
Copy CRC 798702B1
Accurately ripped (confidence 1) [99D243F4] (AR v2)
Copy OK

Track 10

Filename C:\My Documents\My FLAC\The Green Pajamas - To The End Of The Sea (2016) [FLAC] {Green Monkey}\10 - Sea Of Secrets 2.wav

Peak level 100.0 %
Extraction speed 3.3 X
Track quality 100.0 %
Test CRC 2A54419E
Copy CRC 2A54419E
Accurately ripped (confidence 1) [A805E45B] (AR v2)
Copy OK

Track 11

Filename C:\My Documents\My FLAC\The Green Pajamas - To The End Of The Sea (2016) [FLAC] {Green Monkey}\11 - Ten Million Light Years Away.wav

Peak level 100.0 %
Extraction speed 3.6 X
Track quality 100.0 %
Test CRC B3BA799D
Copy CRC B3BA799D
Accurately ripped (confidence 1) [95137F24] (AR v2)
Copy OK

Track 12

Filename C:\My Documents\My FLAC\The Green Pajamas - To The End Of The Sea (2016) [FLAC] {Green Monkey}\12 - Anyone But Me.wav

Peak level 100.0 %
Extraction speed 4.0 X
Track quality 100.0 %
Test CRC 5EFB66DD
Copy CRC 5EFB66DD
Accurately ripped (confidence 1) [A5676379] (AR v2)
Copy OK

Track 13

Filename C:\My Documents\My FLAC\The Green Pajamas - To The End Of The Sea (2016) [FLAC] {Green Monkey}\13 - Got To Go Away.wav

Peak level 99.9 %
Extraction speed 1.7 X
Track quality 99.8 %
Test CRC D05AAC27
Copy CRC D05AAC27
Accurately ripped (confidence 1) [D7EE30B7] (AR v2)
Copy OK

Track 14

Filename C:\My Documents\My FLAC\The Green Pajamas - To The End Of The Sea (2016) [FLAC] {Green Monkey}\14 - Big Black Storm (Dusk).wav

Peak level 100.0 %
Extraction speed 2.5 X
Track quality 99.9 %
Test CRC D80495C4
Copy CRC D80495C4
Accurately ripped (confidence 1) [B10F0A71] (AR v2)
Copy OK

Track 15

Filename C:\My Documents\My FLAC\The Green Pajamas - To The End Of The Sea (2016) [FLAC] {Green Monkey}\15 - (Dusk).wav

Peak level 98.0 %
Extraction speed 2.0 X
Track quality 99.8 %
Test CRC CE477040
Copy CRC CE477040
Accurately ripped (confidence 1) [876D9D91] (AR v2)
Copy OK

Track 16

Filename C:\My Documents\My FLAC\The Green Pajamas - To The End Of The Sea (2016) [FLAC] {Green Monkey}\16 - Why Did I Think I Could.wav

Peak level 100.0 %
Extraction speed 3.7 X
Track quality 100.0 %
Test CRC 632C10D3
Copy CRC 632C10D3
Accurately ripped (confidence 1) [4E139066] (AR v2)
Copy OK

Track 17

Filename C:\My Documents\My FLAC\The Green Pajamas - To The End Of The Sea (2016) [FLAC] {Green Monkey}\17 - Over here.wav

Peak level 100.0 %
Extraction speed 3.8 X
Track quality 100.0 %
Test CRC 6D70320A
Copy CRC 6D70320A
Accurately ripped (confidence 1) [8304402F] (AR v2)
Copy OK

Track 18

Filename C:\My Documents\My FLAC\The Green Pajamas - To The End Of The Sea (2016) [FLAC] {Green Monkey}\18 - Hasta Al Fin De La Mar (To The End Of The Sea).wav

Peak level 100.0 %
Extraction speed 3.8 X
Track quality 100.0 %
Test CRC 551B70CE
Copy CRC 551B70CE
Accurately ripped (confidence 1) [7FDAE9EB] (AR v2)
Copy OK


All tracks accurately ripped

No errors occurred

End of status report

–– CUETools DB Plugin V2.1.6

[CTDB TOCID: WcP47su4UqTurPa4byj4W0xrisI-] found
Submit result: WcP47su4UqTurPa4byj4W0xrisI- has been confirmed
Track | CTDB Status
1 | (1/1) Accurately ripped
2 | (1/1) Accurately ripped
3 | (1/1) Accurately ripped
4 | (1/1) Accurately ripped
5 | (1/1) Accurately ripped
6 | (1/1) Accurately ripped
7 | (1/1) Accurately ripped
8 | (1/1) Accurately ripped
9 | (1/1) Accurately ripped
10 | (1/1) Accurately ripped
11 | (1/1) Accurately ripped
12 | (1/1) Accurately ripped
13 | (1/1) Accurately ripped
14 | (1/1) Accurately ripped
15 | (1/1) Accurately ripped
16 | (1/1) Accurately ripped
17 | (1/1) Accurately ripped
18 | (1/1) Accurately ripped


==== Log checksum 8D30A1C4C851E19A579E6D7F86E5A5BA1ECC5FF5E699397E818E348C329CCA74 ====


The Green Pajamas - To The End Of The Sea (2016) {Green Monkey}