Subcategories

Greg Harris Vibe Quintet - Frames Live (2007)

Posted By: TestTickles
Greg Harris Vibe Quintet - Frames Live (2007)

Greg Harris Vibe Quintet - Frames Live (2007)
EAC Rip | FLAC with CUE and log | scans | 358 mb
MP3 CBR 320kbps | RAR | 146 mb
Genre: jazz, fusion

Frames Live is a live album released in 2007 by the Greg Harris Vibe Quintet. Harris wrote five of the nine songs featured. This album is a self-released project.

Greg Harris Vibe Quintet - Frames Live (2007)

1. Frames
2. Lib Exploration
3. Flank Fuzz
4. Lightness
5. Shepherd's Pi
6. Calm Our Spirits
7. Reach
8. Lucid Dream
9. Folklore

Greg Harris-vibraphone
Matt Fuller-guitar
Bill Larson-druns
James Calvin Thompson-bass
Erinn Bone-trumpet

Recorded live @ Dazzle Restaurant & Lounge, Denver, Colorado on 19 May, 2006
Recorded by Scott Griess & Jeff Jenkins

EAC extraction logfile from 3. June 2017, 13:40 for CD
Greg Harris Vibe Quintet / Frames Live

Used drive : TSSTcorpDVD+-RW TS-H653B Adapter: 2 ID: 0
Read mode : Secure with NO C2, accurate stream, disable cache
Read offset correction : 6
Overread into Lead-In and Lead-Out : No

Used output format : Internal WAV Routines
44.100 Hz; 16 Bit; Stereo

Other options :
Fill up missing offset samples with silence : Yes
Delete leading and trailing silent blocks : No
Native Win32 interface for Win NT & 2000


Track 1
Filename C:\Documents and Settings\cuntfist\Desktop\FLAC's\32\Greg Harris Vibe Quintet - Frames Live (2007) [FLAC]\01 - Frames.wav

Pre-gap length 0:00:02.00

Peak level 97.7 %
Track quality 100.0 %
Test CRC 3AD2C498
Copy CRC 3AD2C498
Copy OK

Track 2
Filename C:\Documents and Settings\cuntfist\Desktop\FLAC's\32\Greg Harris Vibe Quintet - Frames Live (2007) [FLAC]\02 - Lib Exploration.wav

Pre-gap length 0:00:02.00

Peak level 97.7 %
Track quality 99.9 %
Test CRC C9547A99
Copy CRC C9547A99
Copy OK

Track 3
Filename C:\Documents and Settings\cuntfist\Desktop\FLAC's\32\Greg Harris Vibe Quintet - Frames Live (2007) [FLAC]\03 - Flank Fuzz.wav

Pre-gap length 0:00:02.00

Peak level 97.7 %
Track quality 100.0 %
Test CRC 2237547B
Copy CRC 2237547B
Copy OK

Track 4
Filename C:\Documents and Settings\cuntfist\Desktop\FLAC's\32\Greg Harris Vibe Quintet - Frames Live (2007) [FLAC]\04 - Lightness.wav

Pre-gap length 0:00:02.00

Peak level 97.7 %
Track quality 99.9 %
Test CRC 25FB65C0
Copy CRC 25FB65C0
Copy OK

Track 5
Filename C:\Documents and Settings\cuntfist\Desktop\FLAC's\32\Greg Harris Vibe Quintet - Frames Live (2007) [FLAC]\05 - Shepherd's Pi.wav

Pre-gap length 0:00:02.00

Peak level 97.7 %
Track quality 100.0 %
Test CRC 35840B74
Copy CRC 35840B74
Copy OK

Track 6
Filename C:\Documents and Settings\cuntfist\Desktop\FLAC's\32\Greg Harris Vibe Quintet - Frames Live (2007) [FLAC]\06 - Calm Our Spirits.wav

Pre-gap length 0:00:02.00

Peak level 97.7 %
Track quality 100.0 %
Test CRC 10146D6F
Copy CRC 10146D6F
Copy OK

Track 7
Filename C:\Documents and Settings\cuntfist\Desktop\FLAC's\32\Greg Harris Vibe Quintet - Frames Live (2007) [FLAC]\07 - Reach.wav

Pre-gap length 0:00:02.00

Peak level 97.7 %
Track quality 100.0 %
Test CRC 601E4D8A
Copy CRC 601E4D8A
Copy OK

Track 8
Filename C:\Documents and Settings\cuntfist\Desktop\FLAC's\32\Greg Harris Vibe Quintet - Frames Live (2007) [FLAC]\08 - Lucid Dream.wav

Pre-gap length 0:00:02.00

Peak level 97.7 %
Track quality 100.0 %
Test CRC 1FAF437C
Copy CRC 1FAF437C
Copy OK

Track 9
Filename C:\Documents and Settings\cuntfist\Desktop\FLAC's\32\Greg Harris Vibe Quintet - Frames Live (2007) [FLAC]\09 - Folklore.wav

Pre-gap length 0:00:02.00

Peak level 97.7 %
Track quality 100.0 %
Test CRC 8FF31017
Copy CRC 8FF31017
Copy OK

No errors occured


End of status report


Greg Harris Vibe Quintet - Frames Live (2007)