Subcategories

Gama Bomb: Discography (2005-2018)

Posted By: v3122
Gama Bomb: Discography (2005-2018)

Gama Bomb: Discography (2005-2018)
EAC | Flac(Image) + Cue + Log & MP3 CBR 320Kbps
7CD | Label: various | ~ 1670 or 726 Mb | Artwork(png) -> 1464 Mb
Hardcore, Thrash Metal, Crossover

Gama Bomb hail from Dublin, Ireland, where bandmembers Philly Byrne (vocals), Domo Dixon (lead guitar), Luke Graham (rhythm guitar), Joe McGuigan (bass and vocals), and Paul Caffrey (drums) were raised on a varied diet of video games, horror movies, comic books, and, most important of all, classic '80s thrash. Originally founded in 2002, the group's constantly mobile lineups honed their sound on a pair of demos and countless live shows before debuting with 2005's self-explanatory Survival of the Fastest LP, which they recorded and released independently, and notably ahead of the curve where the imminent thrash revival was concerned. Therefore, once said revival actually started to take hold across the globe, it was no surprise to see Gama Bomb snapped up by Earache Records, which unleashed their accomplished sophomore album, Citizen Brain, in summer 2008.

by Eduardo Rivadavia, allmusic
Gama Bomb: Discography (2005-2018)

Gama Bomb: Discography (2005-2018):

Gama Bomb: Discography (2005-2018)

Tracklist CD01 - 2005. Survival of the Fastest (Pacheco Records):

1. Zombie Creeping Flesh [2:41]
2. Steel Teeth (The Metal Jaw) [2:45]
3. Zombie Kommand [2:49]
4. Atomizer [3:13]
5. Fortified Zone [2:15]
6. Racists! [3:33]
7. Scientists? [2:39]
8. Hell Trucker [2:14]
9. Nuke The Skeets [0:13]
10. Skellington Crew [3:06]
11. Bullet Belt [3:47]

Exact Audio Copy V1.0 beta 3 from 29. August 2011

EAC extraction logfile from 13. February 2015, 21:03

Gama Bomb / Survival of the Fastest

Used drive : PLEXTOR DVDR PX-810SA Adapter: 2 ID: 0

Read mode : Secure
Utilize accurate stream : Yes
Defeat audio cache : Yes
Make use of C2 pointers : No

Read offset correction : 48
Overread into Lead-In and Lead-Out : No
Fill up missing offset samples with silence : Yes
Delete leading and trailing silent blocks : No
Null samples used in CRC calculations : Yes
Used interface : Native Win32 interface for Win NT & 2000

Used output format : User Defined Encoder
Selected bitrate : 128 kBit/s
Quality : High
Add ID3 tag : No
Command line compressor : C:\Program Files (x86)\Exact Audio Copy\Flac\flac.exe
Additional command line options : -V -8 %source%


TOC of the extracted CD

Track | Start | Length | Start sector | End sector
––––––––––––––––––––––––––––-
1 | 0:00.00 | 2:41.74 | 0 | 12148
2 | 2:41.74 | 2:45.61 | 12149 | 24584
3 | 5:27.60 | 2:49.43 | 24585 | 37302
4 | 8:17.28 | 3:13.14 | 37303 | 51791
5 | 11:30.42 | 2:15.40 | 51792 | 61956
6 | 13:46.07 | 3:33.39 | 61957 | 77970
7 | 17:19.46 | 2:39.08 | 77971 | 89903
8 | 19:58.54 | 2:14.01 | 89904 | 99954
9 | 22:12.55 | 0:13.71 | 99955 | 101000
10 | 22:26.51 | 3:06.38 | 101001 | 114988
11 | 25:33.14 | 3:47.73 | 114989 | 132086


Range status and errors

Selected range

Filename C:\2005 - Survival of the Fastest (Pacheco Records)\Gama Bomb - Survival of the Fastest.wav

Peak level 98.5 %
Extraction speed 6.7 X
Range quality 100.0 %
Test CRC 0F640BF3
Copy CRC 0F640BF3
Copy OK

No errors occurred


AccurateRip summary

Track 1 not present in database
Track 2 not present in database
Track 3 not present in database
Track 4 not present in database
Track 5 not present in database
Track 6 not present in database
Track 7 not present in database
Track 8 not present in database
Track 9 not present in database
Track 10 not present in database
Track 11 not present in database

None of the tracks are present in the AccurateRip database

End of status report

==== Log checksum A42CEAF916B66BA25A5A53B6C9F6C27EADEC0A8AB8F32154C9D5C999CB899CC0 ====


[CUETools log; Date: 03.11.2019 23:18:25; Version: 2.1.4]
[AccurateRip ID: 000c436d-006952fd-8506e10b] disk not present in database.

Track Peak [ CRC32 ] [W/O NULL] [ LOG ]
– 98,5 [0F640BF3] [A247B9DC] CRC32
01 94,7 [A693B346] [889DFFB2]
02 97,5 [01701891] [67528C39]
03 97,5 [84E4A1C3] [48EE33A7]
04 95,1 [CAD3ABA6] [71962E4A]
05 95,7 [DF74D34A] [D2D1340B]
06 94,3 [4431C1B0] [B10A109A]
07 94,2 [CA899200] [03AA0EB5]
08 95,9 [F0A63B7C] [BFFD3338]
09 95,2 [E9B2DB85] [F8053719]
10 98,5 [CE39F005] [B013E6E9]
11 95,8 [048CA117] [74B7E741]


Gama Bomb: Discography (2005-2018)

Tracklist CD02 - 2008. Citizen Brain (MOSH362CD):

1. Zombie Blood Nightmare [2:37]
2. Evil Voices [2:33]
3. Final Fight [2:48]
4. Time Crime [2:26]
5. Global Warning [2:28]
6. OCP [0:40]
7. Hammer Slammer [3:17]
8. Sentenced To Thrash [3:11]
9. Zombi Brew [2:29]
10. Hell Trucker [2:19]
11. Return Of The Technodrome [2:18]
12. Thrashoholic [2:09]
13. In The Court Of General Zod [2:47]
14. Space Invaders [2:49]
15. Bullet Belt [3:30]

Exact Audio Copy V1.0 beta 3 from 29. August 2011

EAC extraction logfile from 15. March 2015, 20:15

Gama Bomb / Citizen Brain

Used drive : PLEXTOR DVDR PX-810SA Adapter: 2 ID: 0

Read mode : Secure
Utilize accurate stream : Yes
Defeat audio cache : Yes
Make use of C2 pointers : No

Read offset correction : 48
Overread into Lead-In and Lead-Out : No
Fill up missing offset samples with silence : Yes
Delete leading and trailing silent blocks : No
Null samples used in CRC calculations : Yes
Used interface : Native Win32 interface for Win NT & 2000

Used output format : User Defined Encoder
Selected bitrate : 128 kBit/s
Quality : High
Add ID3 tag : No
Command line compressor : C:\Program Files (x86)\Exact Audio Copy\Flac\flac.exe
Additional command line options : -V -8 %source%


TOC of the extracted CD

Track | Start | Length | Start sector | End sector
––––––––––––––––––––––––––––-
1 | 0:00.00 | 2:37.34 | 0 | 11808
2 | 2:37.34 | 2:33.63 | 11809 | 23346
3 | 5:11.22 | 2:48.04 | 23347 | 35950
4 | 7:59.26 | 2:26.18 | 35951 | 46918
5 | 10:25.44 | 2:28.43 | 46919 | 58061
6 | 12:54.12 | 0:40.59 | 58062 | 61120
7 | 13:34.71 | 3:17.56 | 61121 | 75951
8 | 16:52.52 | 3:11.45 | 75952 | 90321
9 | 20:04.22 | 2:29.08 | 90322 | 101504
10 | 22:33.30 | 2:19.11 | 101505 | 111940
11 | 24:52.41 | 2:18.73 | 111941 | 122363
12 | 27:11.39 | 2:09.28 | 122364 | 132066
13 | 29:20.67 | 2:47.23 | 132067 | 144614
14 | 32:08.15 | 2:49.32 | 144615 | 157321
15 | 34:57.47 | 3:30.43 | 157322 | 173114


Range status and errors

Selected range

Filename C:\2008 - Citizen Brain (MOSH362CD)\Gama Bomb - Citizen Brain.wav

Peak level 98.7 %
Extraction speed 6.9 X
Range quality 100.0 %
Test CRC C2D7DF38
Copy CRC C2D7DF38
Copy OK

No errors occurred


AccurateRip summary

Track 1 accurately ripped (confidence 3) [E1DE7D0F] (AR v2)
Track 2 accurately ripped (confidence 3) [BCE00D46] (AR v2)
Track 3 accurately ripped (confidence 3) [C0B94640] (AR v2)
Track 4 accurately ripped (confidence 3) [5AF7DA11] (AR v2)
Track 5 accurately ripped (confidence 3) [70F1DE37] (AR v2)
Track 6 accurately ripped (confidence 3) [97365423] (AR v2)
Track 7 accurately ripped (confidence 3) [334EF8B1] (AR v2)
Track 8 accurately ripped (confidence 3) [769CEDCA] (AR v2)
Track 9 accurately ripped (confidence 3) [7751EB8D] (AR v2)
Track 10 accurately ripped (confidence 3) [D593B79E] (AR v2)
Track 11 accurately ripped (confidence 3) [77510191] (AR v2)
Track 12 accurately ripped (confidence 3) [EEA77C4F] (AR v2)
Track 13 accurately ripped (confidence 3) [47645CC2] (AR v2)
Track 14 accurately ripped (confidence 2) [190538CD] (AR v2)
Track 15 accurately ripped (confidence 2) [0F52D3DA] (AR v2)

All tracks accurately ripped

End of status report

==== Log checksum DF40F6C55C31211EFFE12A7285FB569DFF6C5938647D3589E4626F693465466E ====


[CUETools log; Date: 03.11.2019 23:19:59; Version: 2.1.4]
[AccurateRip ID: 00148b6c-00e8c4b8-c409040f] found.
Track [ CRC | V2 ] Status
01 [9392c191|e1de7d0f] (00+05/24) Accurately ripped
02 [2c1f3386|bce00d46] (00+05/24) Accurately ripped
03 [e9a517e3|c0b94640] (00+05/24) Accurately ripped
04 [bde7667a|5af7da11] (00+05/24) Accurately ripped
05 [fdd169ef|70f1de37] (00+05/24) Accurately ripped
06 [d54270e1|97365423] (00+05/24) Accurately ripped
07 [65c275cb|334ef8b1] (00+05/24) Accurately ripped
08 [b58e44c0|769cedca] (00+05/24) Accurately ripped
09 [55c2d25a|7751eb8d] (00+05/24) Accurately ripped
10 [09c468b8|d593b79e] (00+05/24) Accurately ripped
11 [33dd936a|77510191] (00+05/24) Accurately ripped
12 [7557d224|eea77c4f] (00+05/24) Accurately ripped
13 [40b3fd8f|47645cc2] (00+05/24) Accurately ripped
14 [c6a8824b|190538cd] (00+04/24) Accurately ripped
15 [7f31e991|0f52d3da] (00+03/23) Accurately ripped
Offsetted by -54:
01 [0b6442d6] (02/24) Accurately ripped
02 [719c3940] (02/24) Accurately ripped
03 [85eecf05] (02/24) Accurately ripped
04 [15a37867] (02/24) Accurately ripped
05 [8aae818f] (02/24) Accurately ripped
06 [b086b1d2] (02/24) Accurately ripped
07 [14c7568d] (02/24) Accurately ripped
08 [c7a1eb23] (02/24) Accurately ripped
09 [c55a0831] (02/24) Accurately ripped
10 [b90cbc16] (02/24) Accurately ripped
11 [70aee9c2] (02/24) Accurately ripped
12 [e0946dee] (02/24) Accurately ripped
13 [1d800f10] (02/24) Accurately ripped
14 [4bd54dce] (02/24) Accurately ripped
15 [dc4a3b4c] (02/23) Accurately ripped
Offsetted by 6:
01 [8401e73f] (03/24) Accurately ripped
02 [217cac5d] (03/24) Accurately ripped
03 [9fcd1215] (03/24) Accurately ripped
04 [55dad3da] (03/24) Accurately ripped
05 [adf94637] (03/24) Accurately ripped
06 [37dba549] (03/24) Accurately ripped
07 [e4dbe1d0] (03/24) Accurately ripped
08 [d3f0d859] (03/24) Accurately ripped
09 [ccbf9382] (03/24) Accurately ripped
10 [aa680284] (03/24) Accurately ripped
11 [49547925] (03/24) Accurately ripped
12 [d4f9c753] (03/24) Accurately ripped
13 [9bb2a8bb] (03/24) Accurately ripped
14 [498fc255] (03/24) Accurately ripped
15 [6be0eb93] (03/23) Accurately ripped
Offsetted by 682:
01 [e27b0298] (06/24) Accurately ripped
02 [47206029] (06/24) Accurately ripped
03 [153367da] (06/24) Accurately ripped
04 [7a45d1d9] (06/24) Accurately ripped
05 [2a005035] (06/24) Accurately ripped
06 [9997cf7c] (06/24) Accurately ripped
07 [6ffd4242] (06/24) Accurately ripped
08 [5cf0a59a] (06/24) Accurately ripped
09 [a18d4992] (06/24) Accurately ripped
10 [84a6d204] (06/24) Accurately ripped
11 [e3a9a112] (06/24) Accurately ripped
12 [bb41dc09] (06/24) Accurately ripped
13 [96f510cf] (06/24) Accurately ripped
14 [f903138e] (06/24) Accurately ripped
15 [e6cda856] (06/23) Accurately ripped
Offsetted by 36:
01 [d8ab960d] (00/24) No match (V2 was not tested)
02 [73fd28d3] (00/24) No match (V2 was not tested)
03 [eb9c9dac] (00/24) No match (V2 was not tested)
04 [a8687d63] (00/24) No match (V2 was not tested)
05 [6510b150] (00/24) No match (V2 was not tested)
06 [9367e60a] (00/24) No match (V2 was not tested)
07 [bc63b868] (00/24) No match (V2 was not tested)
08 [b6e63d02] (00/24) No match (V2 was not tested)
09 [d22404f6] (00/24) No match (V2 was not tested)
10 [e6e2039d] (00/24) No match (V2 was not tested)
11 [bd35f5d8] (00/24) No match (V2 was not tested)
12 [091b482f] (00/24) No match (V2 was not tested)
13 [fa1c95d7] (00/24) No match (V2 was not tested)
14 [cbb2f475] (00/24) No match (V2 was not tested)
15 [0bee9c7c] (00/23) No match (V2 was not tested)

Track Peak [ CRC32 ] [W/O NULL] [ LOG ]
– 98,7 [C2D7DF38] [04FED3D9] CRC32
01 98,7 [5135217C] [A6A00D33]
02 98,7 [5C3723B1] [2B28AC0B]
03 98,7 [CF98A997] [72671234]
04 98,7 [CA6967AE] [57D19704]
05 98,7 [874BB6E6] [B0D1F76D]
06 98,7 [39A3219A] [76231D38]
07 98,7 [9A6B60E9] [7AF16BBD]
08 98,7 [65FE86E5] [EA9B76F6]
09 98,7 [BEFCDA88] [C850D963]
10 98,7 [9C93BF10] [653F1F05]
11 98,7 [9A1CA7AF] [3770B2BE]
12 98,7 [928F1AE2] [8648FBF2]
13 98,7 [1C6DFBB9] [52DEC5ED]
14 98,7 [A85A0D4E] [25D4F199]
15 98,7 [4A2CA3CD] [6CE5E5E7]


Gama Bomb: Discography (2005-2018)

Tracklist CD03-04 - 2009. Tales From The Grave In Space (MOSH382CD):

CD 1: Tales From The Grave In Space [0:30:55]

1. Slam Anthem [2:33]
2. New Eliminators Of Atlantis B.C. [3:05]
3. Three Witches [2:39]
4. Last Ninjas Unite [2:15]
5. Escape From Scarecrow Mountain [2:35]
6. Mussolini Mosh [1:13]
7. We Respect You [2:28]
8. Apocalypse 1997 [2:32]
9. Return To Blood Castle [2:43]
10. Polterghost [2:51]
11. Skeletron [3:08]
12. Mummy Invasion [2:47]

Exact Audio Copy V1.0 beta 3 from 29. August 2011

EAC extraction logfile from 15. March 2015, 20:30

Gama Bomb / Tales From The Grave In Space

Used drive : PLEXTOR DVDR PX-810SA Adapter: 2 ID: 0

Read mode : Secure
Utilize accurate stream : Yes
Defeat audio cache : Yes
Make use of C2 pointers : No

Read offset correction : 48
Overread into Lead-In and Lead-Out : No
Fill up missing offset samples with silence : Yes
Delete leading and trailing silent blocks : No
Null samples used in CRC calculations : Yes
Used interface : Native Win32 interface for Win NT & 2000

Used output format : User Defined Encoder
Selected bitrate : 128 kBit/s
Quality : High
Add ID3 tag : No
Command line compressor : C:\Program Files (x86)\Exact Audio Copy\Flac\flac.exe
Additional command line options : -V -8 %source%


TOC of the extracted CD

Track | Start | Length | Start sector | End sector
––––––––––––––––––––––––––––-
1 | 0:00.00 | 2:33.44 | 0 | 11518
2 | 2:33.44 | 3:05.39 | 11519 | 25432
3 | 5:39.08 | 2:39.31 | 25433 | 37388
4 | 8:18.39 | 2:15.66 | 37389 | 47579
5 | 10:34.30 | 2:35.39 | 47580 | 59243
6 | 13:09.69 | 1:13.07 | 59244 | 64725
7 | 14:23.01 | 2:28.46 | 64726 | 75871
8 | 16:51.47 | 2:32.27 | 75872 | 87298
9 | 19:23.74 | 2:43.41 | 87299 | 99564
10 | 22:07.40 | 2:51.23 | 99565 | 112412
11 | 24:58.63 | 3:08.43 | 112413 | 126555
12 | 28:07.31 | 2:48.25 | 126556 | 139180


Range status and errors

Selected range

Filename C:\2009 - Tales From The Grave In Space (MOSH382CD)\CD 1 - Tales From The Grave In Space\Gama Bomb - Tales From The Grave In Space.wav

Peak level 99.9 %
Extraction speed 6.7 X
Range quality 100.0 %
Test CRC 5F82A2D1
Copy CRC 5F82A2D1
Copy OK

No errors occurred


AccurateRip summary

Track 1 accurately ripped (confidence 7) [B10DF369] (AR v2)
Track 2 accurately ripped (confidence 7) [0A9FAB75] (AR v2)
Track 3 accurately ripped (confidence 7) [A35D030D] (AR v2)
Track 4 accurately ripped (confidence 7) [59283785] (AR v2)
Track 5 accurately ripped (confidence 7) [718B7B46] (AR v2)
Track 6 accurately ripped (confidence 7) [ADCF724E] (AR v2)
Track 7 accurately ripped (confidence 7) [1D9781BE] (AR v2)
Track 8 accurately ripped (confidence 7) [FEADAD7D] (AR v2)
Track 9 accurately ripped (confidence 7) [1E49D50F] (AR v2)
Track 10 accurately ripped (confidence 7) [5D2F0EC1] (AR v2)
Track 11 accurately ripped (confidence 7) [619114FE] (AR v2)
Track 12 accurately ripped (confidence 7) [1958888B] (AR v2)

All tracks accurately ripped

End of status report

==== Log checksum 8433A054501D2D733E6783BB2251677A522D495B52BD2EE50F19520AAFA43A5A ====


[CUETools log; Date: 03.11.2019 23:21:52; Version: 2.1.4]
[AccurateRip ID: 000d87f9-007ddba1-8c073f0c] found.
Track [ CRC | V2 ] Status
01 [00def664|b10df369] (04+13/17) Accurately ripped
02 [58c336c6|0a9fab75] (04+13/17) Accurately ripped
03 [47c2148f|a35d030d] (04+13/17) Accurately ripped
04 [c3f9ac1d|59283785] (04+13/17) Accurately ripped
05 [aef1efb7|718b7b46] (04+13/17) Accurately ripped
06 [b1cc8e69|adcf724e] (04+13/17) Accurately ripped
07 [7acf786e|1d9781be] (04+13/17) Accurately ripped
08 [4ed6f31f|feadad7d] (04+13/17) Accurately ripped
09 [f8c85732|1e49d50f] (04+13/17) Accurately ripped
10 [c25a9508|5d2f0ec1] (04+13/17) Accurately ripped
11 [b0216011|619114fe] (04+13/17) Accurately ripped
12 [79ef50fc|1958888b] (04+12/16) Accurately ripped

Track Peak [ CRC32 ] [W/O NULL] [ LOG ]
– 99,9 [5F82A2D1] [338B886E] CRC32
01 99,9 [D89792B8] [8E56D777]
02 99,9 [0F1720B8] [ADDD32EA]
03 99,9 [E066E6B7] [B5938E50]
04 99,9 [749E3A9E] [190FCC02]
05 99,9 [1B01C2F4] [ED08F85D]
06 99,9 [230FD1D6] [6C28529B]
07 99,9 [FB2E5F30] [9D9A2EFB]
08 99,9 [0F980B85] [570C460D]
09 99,9 [F561D90C] [309C373B]
10 99,9 [A11BCE53] [6CD6F52E]
11 99,9 [8EA45588] [60F55075]
12 99,9 [2CAF1269] [146BC987]



CD 2: Half Cut [0:11:08]

1. Cellar Dweller [2:03]
2. Deep Red [0:44]
3. Curry Chip [2:51]
4. Welcome Back To Life [3:19]
5. Exhumed Maniac [2:09]

Exact Audio Copy V1.0 beta 3 from 29. August 2011

EAC extraction logfile from 15. March 2015, 20:38

Gama Bomb / Half Cut

Used drive : PLEXTOR DVDR PX-810SA Adapter: 2 ID: 0

Read mode : Secure
Utilize accurate stream : Yes
Defeat audio cache : Yes
Make use of C2 pointers : No

Read offset correction : 48
Overread into Lead-In and Lead-Out : No
Fill up missing offset samples with silence : Yes
Delete leading and trailing silent blocks : No
Null samples used in CRC calculations : Yes
Used interface : Native Win32 interface for Win NT & 2000

Used output format : User Defined Encoder
Selected bitrate : 128 kBit/s
Quality : High
Add ID3 tag : No
Command line compressor : C:\Program Files (x86)\Exact Audio Copy\Flac\flac.exe
Additional command line options : -V -8 %source%


TOC of the extracted CD

Track | Start | Length | Start sector | End sector
––––––––––––––––––––––––––––-
1 | 0:00.00 | 2:03.42 | 0 | 9266
2 | 2:03.42 | 0:44.38 | 9267 | 12604
3 | 2:48.05 | 2:51.21 | 12605 | 25450
4 | 5:39.26 | 3:19.38 | 25451 | 40413
5 | 8:58.64 | 2:10.00 | 40414 | 50163


Range status and errors

Selected range

Filename C:\2009 - Tales From The Grave In Space (MOSH382CD)\CD 2 - Half Cut\Gama Bomb - Half Cut.wav

Peak level 100.0 %
Extraction speed 5.6 X
Range quality 100.0 %
Test CRC 43AFE060
Copy CRC 43AFE060
Copy OK

No errors occurred


AccurateRip summary

Track 1 accurately ripped (confidence 3) [1B71DDA7] (AR v2)
Track 2 accurately ripped (confidence 3) [D6EF699B] (AR v2)
Track 3 accurately ripped (confidence 3) [D9F1E651] (AR v2)
Track 4 accurately ripped (confidence 3) [7BF87FF7] (AR v2)
Track 5 accurately ripped (confidence 3) [3C1B4B9A] (AR v2)

All tracks accurately ripped

End of status report

==== Log checksum 8A8B1680A48828B8ACF80A2AD06DEB299A501DDDB833B38FA826E548CB5EC518 ====


[CUETools log; Date: 03.11.2019 23:22:48; Version: 2.1.4]
[AccurateRip ID: 00021aad-000a16d8-23029c05] found.
Track [ CRC | V2 ] Status
01 [530f51db|1b71dda7] (0+4/4) Accurately ripped
02 [14c96f40|d6ef699b] (0+4/4) Accurately ripped
03 [149503c3|d9f1e651] (0+4/4) Accurately ripped
04 [1a40cdae|7bf87ff7] (0+4/4) Accurately ripped
05 [81a56bbf|3c1b4b9a] (0+4/4) Accurately ripped

Track Peak [ CRC32 ] [W/O NULL] [ LOG ]
– 99,9 [43AFE060] [0C8D5DCD] CRC32
01 99,9 [95496FEF] [6244934F]
02 99,9 [ECBEBE85] [23379186]
03 99,9 [35C7AEEA] [17265A17]
04 99,9 [865ECEC1] [F5F85F43]
05 99,9 [CE57284D] [D79D9167]


Gama Bomb: Discography (2005-2018)

Tracklist CD05 - 2013. The Terror Tapes (AFM 460-2):

1. The Wrong Stuff [3:18]
2. Legend Of Speed [2:26]
3. Backwards Bible [3:30]
4. Beverly Hills Robocop [4:20]
5. Smoke The Blow With Willem Dafoe [1:16]
6. We Started The Fire [3:21]
7. Terrorscope [3:26]
8. The Cannibals Are In The Streets - All Flesh Must Be Eaten [3:47]
9. Shitting Yourself To Live [0:18]
10. Matrioshka Brain [3:45]
11. Metal Idiot [2:26]
12. Wrecking Ball [4:34]

Exact Audio Copy V1.3 from 2. September 2016

EAC extraction logfile from 14. July 2017, 21:33

Gama Bomb / The Terror Tapes

Used drive : Optiarc DVD RW AD-7643S Adapter: 1 ID: 0

Read mode : Secure
Utilize accurate stream : Yes
Defeat audio cache : Yes
Make use of C2 pointers : No

Read offset correction : 6
Overread into Lead-In and Lead-Out : No
Fill up missing offset samples with silence : Yes
Delete leading and trailing silent blocks : No
Null samples used in CRC calculations : Yes
Used interface : Native Win32 interface for Win NT & 2000

Used output format : User Defined Encoder
Selected bitrate : 128 kBit/s
Quality : High
Add ID3 tag : No
Command line compressor : C:\Program Files (x86)\Exact Audio Copy\Flac\flac.exe
Additional command line options : -V -8 -T "Date=%year%" -T "Genre=%genre%" %source%


TOC of the extracted CD

Track | Start | Length | Start sector | End sector
––––––––––––––––––––––––––––-
1 | 0:00.00 | 3:17.47 | 0 | 14821
2 | 3:17.47 | 2:25.39 | 14822 | 25735
3 | 5:43.11 | 3:30.00 | 25736 | 41485
4 | 9:13.11 | 4:19.35 | 41486 | 60945
5 | 13:32.46 | 1:15.65 | 60946 | 66635
6 | 14:48.36 | 3:20.57 | 66636 | 81692
7 | 18:09.18 | 3:25.59 | 81693 | 97126
8 | 21:35.02 | 3:46.03 | 97127 | 114079
9 | 25:21.05 | 0:17.36 | 114080 | 115390
10 | 25:38.41 | 3:44.39 | 115391 | 132229
11 | 29:23.05 | 2:25.71 | 132230 | 143175
12 | 31:49.01 | 4:33.48 | 143176 | 163698


Range status and errors

Selected range

Filename C:\2013 - The Terror Tapes (AFM 460-2)\Gama Bomb - The Terror Tapes.wav

Peak level 98.8 %
Extraction speed 4.0 X
Range quality 100.0 %
Test CRC 323411E8
Copy CRC 323411E8
Copy OK

No errors occurred


AccurateRip summary

Track 1 accurately ripped (confidence 7) [45FDE763] (AR v2)
Track 2 accurately ripped (confidence 7) [FCF2A526] (AR v2)
Track 3 accurately ripped (confidence 7) [05BDA1BA] (AR v2)
Track 4 accurately ripped (confidence 7) [A597E3E7] (AR v2)
Track 5 accurately ripped (confidence 7) [6A7C4C58] (AR v2)
Track 6 accurately ripped (confidence 7) [DC944BD1] (AR v2)
Track 7 accurately ripped (confidence 7) [86CCE66C] (AR v2)
Track 8 accurately ripped (confidence 7) [C993351F] (AR v2)
Track 9 accurately ripped (confidence 7) [F3E82E08] (AR v2)
Track 10 accurately ripped (confidence 7) [82FA1CAB] (AR v2)
Track 11 accurately ripped (confidence 7) [5FE0EDA6] (AR v2)
Track 12 accurately ripped (confidence 7) [3D4B44FB] (AR v2)

All tracks accurately ripped

End of status report

–– CUETools DB Plugin V2.1.6

[CTDB TOCID: .VoDLYnKtQlCoTxQtEQRZfa1m_s-] found
Submit result: .VoDLYnKtQlCoTxQtEQRZfa1m_s- has been confirmed
Track | CTDB Status
1 | (11/11) Accurately ripped
2 | (11/11) Accurately ripped
3 | (11/11) Accurately ripped
4 | (11/11) Accurately ripped
5 | (11/11) Accurately ripped
6 | (11/11) Accurately ripped
7 | (11/11) Accurately ripped
8 | (11/11) Accurately ripped
9 | (11/11) Accurately ripped
10 | (11/11) Accurately ripped
11 | (11/11) Accurately ripped
12 | (11/11) Accurately ripped


==== Log checksum 662C681178455CEA8AA867CAD0D90645E2F8C9488CBAE25AC01D36C949959AE8 ====


[CUETools log; Date: 03.11.2019 23:24:25; Version: 2.1.4]
[AccurateRip ID: 001020fe-0095a6d1-a008860c] found.
Track [ CRC | V2 ] Status
01 [2dfde881|45fde763] (00+11/11) Accurately ripped
02 [a4a4617f|fcf2a526] (00+11/11) Accurately ripped
03 [36108586|05bda1ba] (00+11/11) Accurately ripped
04 [66f33ca5|a597e3e7] (00+11/11) Accurately ripped
05 [95ea5af9|6a7c4c58] (00+11/11) Accurately ripped
06 [3cfc93c3|dc944bd1] (00+11/11) Accurately ripped
07 [ad43b033|86cce66c] (00+11/11) Accurately ripped
08 [0d3b1525|c993351f] (00+11/11) Accurately ripped
09 [a34d36b3|f3e82e08] (00+10/10) Accurately ripped
10 [fcf47225|82fa1cab] (00+11/11) Accurately ripped
11 [8d26428f|5fe0eda6] (00+11/11) Accurately ripped
12 [9459a649|3d4b44fb] (00+10/10) Accurately ripped

Track Peak [ CRC32 ] [W/O NULL] [ LOG ]
– 98,8 [323411E8] [E57594BE] CRC32
01 98,0 [71B9CB1B] [A34E2D08]
02 98,0 [2C46D3DF] [C5E12E2D]
03 98,8 [DBD7BDB6] [6237EFB4]
04 98,0 [FF858CDA] [0B4619CF]
05 98,0 [1E80D0A9] [6B905A49]
06 98,0 [92EBFA51] [41602214]
07 98,0 [8B9F1DDE] [A6684322]
08 98,0 [DD54DAE2] [B7305169]
09 98,0 [B93DD942] [C52DFAD5]
10 98,0 [DEF0E72A] [1E141FAA]
11 98,0 [54384BE9] [B217CC89]
12 98,0 [03564840] [C11A041D]


Gama Bomb: Discography (2005-2018)

Tracklist CD06 - 2015. Untouchable Glory (AFM 535-2):

1. Ninja Untouchables / Untouchable Glory [2:48]
2. Avenge Me! [2:26]
3. Drinkers, Inc. [3:07]
4. My Evil Eye [2:50]
5. Tuck Your T-Shirt In [3:16]
6. Ride The Night [2:52]
7. She Thing [2:13]
8. Witching Mania [2:32]
9. James Joints [0:59]
10. Raging Skies [3:04]
11. I Will Haunt You [2:58]
12. After The Fire [2:51]

Exact Audio Copy V1.0 beta 5 from 2. April 2015

EAC extraction logfile from 16. March 2016, 20:03

Gama Bomb / Untouchable Glory

Used drive : PLEXTOR DVDR PX-810SA Adapter: 1 ID: 0

Read mode : Secure
Utilize accurate stream : Yes
Defeat audio cache : Yes
Make use of C2 pointers : No

Read offset correction : 48
Overread into Lead-In and Lead-Out : No
Fill up missing offset samples with silence : Yes
Delete leading and trailing silent blocks : No
Null samples used in CRC calculations : Yes
Used interface : Native Win32 interface for Win NT & 2000

Used output format : User Defined Encoder
Selected bitrate : 128 kBit/s
Quality : High
Add ID3 tag : No
Command line compressor : C:\Program Files (x86)\Exact Audio Copy\Flac\flac.exe
Additional command line options : -V -8 %source%


TOC of the extracted CD

Track | Start | Length | Start sector | End sector
––––––––––––––––––––––––––––-
1 | 0:00.00 | 2:48.72 | 0 | 12671
2 | 2:48.72 | 2:26.19 | 12672 | 23640
3 | 5:15.16 | 3:07.43 | 23641 | 37708
4 | 8:22.59 | 2:50.31 | 37709 | 50489
5 | 11:13.15 | 3:16.65 | 50490 | 65254
6 | 14:30.05 | 2:52.25 | 65255 | 78179
7 | 17:22.30 | 2:13.12 | 78180 | 88166
8 | 19:35.42 | 2:32.25 | 88167 | 99591
9 | 22:07.67 | 0:59.74 | 99592 | 104090
10 | 23:07.66 | 3:04.05 | 104091 | 117895
11 | 26:11.71 | 2:58.32 | 117896 | 131277
12 | 29:10.28 | 2:51.52 | 131278 | 144154


Range status and errors

Selected range

Filename C:\2015 - Untouchable Glory (AFM 535-2)\Gama Bomb - Untouchable Glory.wav

Peak level 95.7 %
Extraction speed 6.4 X
Range quality 100.0 %
Test CRC EF3B9BEC
Copy CRC EF3B9BEC
Copy OK

No errors occurred


AccurateRip summary

Track 1 accurately ripped (confidence 1) [29F2CABC] (AR v2)
Track 2 accurately ripped (confidence 1) [54748A3B] (AR v2)
Track 3 accurately ripped (confidence 1) [A8FF684A] (AR v2)
Track 4 accurately ripped (confidence 1) [9EEC9A04] (AR v2)
Track 5 accurately ripped (confidence 1) [6FEF3A63] (AR v2)
Track 6 accurately ripped (confidence 1) [7DC4A0CE] (AR v2)
Track 7 accurately ripped (confidence 1) [877940AA] (AR v2)
Track 8 accurately ripped (confidence 1) [ABEA5F0A] (AR v2)
Track 9 accurately ripped (confidence 1) [65C2DF96] (AR v2)
Track 10 accurately ripped (confidence 1) [360B1AB3] (AR v2)
Track 11 accurately ripped (confidence 1) [A76D4B5D] (AR v2)
Track 12 accurately ripped (confidence 1) [458E89F4] (AR v2)

All tracks accurately ripped

End of status report

–– CUETools DB Plugin V2.1.6

[CTDB TOCID: F1SrXFRnO96m0BjEGIjMZwFSW3A-] found
Submit result: F1SrXFRnO96m0BjEGIjMZwFSW3A- has been confirmed
Track | CTDB Status
1 | (8/8) Accurately ripped
2 | (8/8) Accurately ripped
3 | (8/8) Accurately ripped
4 | (8/8) Accurately ripped
5 | (8/8) Accurately ripped
6 | (8/8) Accurately ripped
7 | (8/8) Accurately ripped
8 | (8/8) Accurately ripped
9 | (8/8) Accurately ripped
10 | (8/8) Accurately ripped
11 | (8/8) Accurately ripped
12 | (8/8) Accurately ripped


==== Log checksum DF237E5217609B55DAF3A7D81BDDB82C88D60EB8A9922FD0750973B6C01CEDE8 ====


[CUETools log; Date: 03.11.2019 23:25:59; Version: 2.1.4]
[AccurateRip ID: 000e8b26-0086b0f5-9d07820c] found.
Track [ CRC | V2 ] Status
01 [39befb50|29f2cabc] (0+7/7) Accurately ripped
02 [a60b94d9|54748a3b] (0+7/7) Accurately ripped
03 [30cec5ce|a8ff684a] (0+7/7) Accurately ripped
04 [0ef7ae4e|9eec9a04] (0+7/7) Accurately ripped
05 [04978282|6fef3a63] (0+7/7) Accurately ripped
06 [070d294e|7dc4a0ce] (0+7/7) Accurately ripped
07 [cee3506f|877940aa] (0+7/7) Accurately ripped
08 [b04279d6|abea5f0a] (0+7/7) Accurately ripped
09 [14b71ff9|65c2df96] (0+7/7) Accurately ripped
10 [7e7bb000|360b1ab3] (0+7/7) Accurately ripped
11 [390eb7d3|a76d4b5d] (0+7/7) Accurately ripped
12 [509bad0f|458e89f4] (0+6/6) Accurately ripped

Track Peak [ CRC32 ] [W/O NULL] [ LOG ]
– 95,7 [EF3B9BEC] [3826B134] CRC32
01 95,7 [1A8F1798] [FCC5B2EA]
02 95,7 [8E101653] [DB3D00D1]
03 95,7 [12F3B898] [2DC879BB]
04 95,7 [53D4587D] [924B4FE6]
05 95,7 [F1F04F52] [AA4F76D8]
06 95,7 [B413D03F] [A526A091]
07 95,7 [212B0742] [0AC168BA]
08 95,7 [C18BB590] [97E6D0F8]
09 95,7 [45D21119] [FB00CDEC]
10 95,7 [BD66808F] [4FC18637]
11 95,7 [F311F48C] [E235EED6]
12 95,7 [5CDF4EEA] [53740C61]


Gama Bomb: Discography (2005-2018)

Tracklist CD07 - 2018. Speed Between The Lines (FO1391CD):

1. Give Me Leather [03:51]
2. A Hanging [02:44]
3. 666teen [02:57]
4. Bring Out the Monster [03:46]
5. R.I.P. U [03:11]
6. Motorgeist [03:09]
7. Alt-Reich [02:20]
8. Stary Rotten [02:14]
9. We R Going 2 Eat U [02:23]
10. Kurt Russell [03:00]
11. World Gone to Hell [02:25]
12. Faceblaster [03:06]

Exact Audio Copy V1.3 from 2. September 2016

EAC extraction logfile from 27. January 2019, 16:03

Gama Bomb / Speed Between The Lines

Used drive : Optiarc DVD RW AD-7643S Adapter: 1 ID: 0

Read mode : Secure
Utilize accurate stream : Yes
Defeat audio cache : Yes
Make use of C2 pointers : No

Read offset correction : 6
Overread into Lead-In and Lead-Out : No
Fill up missing offset samples with silence : Yes
Delete leading and trailing silent blocks : No
Null samples used in CRC calculations : Yes
Used interface : Native Win32 interface for Win NT & 2000

Used output format : User Defined Encoder
Selected bitrate : 128 kBit/s
Quality : High
Add ID3 tag : No
Command line compressor : C:\Program Files (x86)\Exact Audio Copy\Flac\flac.exe
Additional command line options : -V -8 -T "Date=%year%" -T "Genre=%genre%" %source%


TOC of the extracted CD

Track | Start | Length | Start sector | End sector
––––––––––––––––––––––––––––-
1 | 0:00.00 | 3:51.48 | 0 | 17372
2 | 3:51.48 | 2:44.46 | 17373 | 29718
3 | 6:36.19 | 2:57.28 | 29719 | 43021
4 | 9:33.47 | 3:46.71 | 43022 | 60042
5 | 13:20.43 | 3:11.40 | 60043 | 74407
6 | 16:32.08 | 3:09.37 | 74408 | 88619
7 | 19:41.45 | 2:20.16 | 88620 | 99135
8 | 22:01.61 | 2:15.06 | 99136 | 109266
9 | 24:16.67 | 2:23.62 | 109267 | 120053
10 | 26:40.54 | 3:00.69 | 120054 | 133622
11 | 29:41.48 | 2:25.57 | 133623 | 144554
12 | 32:07.30 | 3:06.74 | 144555 | 158578


Range status and errors

Selected range

Filename D:\Zloslaw\Gama Bomb - 2018 - Speed Between The Lines (FO1391CD)\Gama Bomb - Speed Between The Lines.wav

Peak level 93.2 %
Extraction speed 1.8 X
Range quality 100.0 %
Test CRC AB269617
Copy CRC AB269617
Copy OK

No errors occurred


AccurateRip summary

Track 1 cannot be verified as accurate (confidence 1) [C1215EF5], AccurateRip returned [43456BD7] (AR v2)
Track 2 cannot be verified as accurate (confidence 1) [34276B7B], AccurateRip returned [1BB00AE1] (AR v2)
Track 3 cannot be verified as accurate (confidence 1) [E7057706], AccurateRip returned [CFAB2AAD] (AR v2)
Track 4 cannot be verified as accurate (confidence 1) [D3E39618], AccurateRip returned [A8CD553E] (AR v2)
Track 5 cannot be verified as accurate (confidence 1) [C0E61E95], AccurateRip returned [56DB6742] (AR v2)
Track 6 cannot be verified as accurate (confidence 1) [2073BC97], AccurateRip returned [CBF3439D] (AR v2)
Track 7 cannot be verified as accurate (confidence 1) [AFC2C8F8], AccurateRip returned [11B7D855] (AR v2)
Track 8 cannot be verified as accurate (confidence 1) [36FC94B2], AccurateRip returned [1EDEFB9F] (AR v2)
Track 9 cannot be verified as accurate (confidence 1) [84823D32], AccurateRip returned [837AEF9E] (AR v2)
Track 10 cannot be verified as accurate (confidence 1) [8BAF29FE], AccurateRip returned [4E860616] (AR v2)
Track 11 cannot be verified as accurate (confidence 1) [D16AAEC7], AccurateRip returned [A57D29CE] (AR v2)
Track 12 cannot be verified as accurate (confidence 1) [14373FBA], AccurateRip returned [8270EB16] (AR v2)

No tracks could be verified as accurate
You may have a different pressing from the one(s) in the database

End of status report

–– CUETools DB Plugin V2.1.6

[CTDB TOCID: 8D2P7g6or0dWXnLOpZW2VrX2ZRc-] found
Submit result: 8D2P7g6or0dWXnLOpZW2VrX2ZRc- has been confirmed
Track | CTDB Status
1 | (11/11) Accurately ripped
2 | (11/11) Accurately ripped
3 | (11/11) Accurately ripped
4 | (11/11) Accurately ripped
5 | (11/11) Accurately ripped
6 | (11/11) Accurately ripped
7 | (11/11) Accurately ripped
8 | (11/11) Accurately ripped
9 | (11/11) Accurately ripped
10 | (11/11) Accurately ripped
11 | (11/11) Accurately ripped
12 | (11/11) Accurately ripped


==== Log checksum 0AC5DA3747A54AFABB613774DC0D19717A332BB755D445F7308731B5D3FB0072 ====


[CUETools log; Date: 03.11.2019 23:29:07; Version: 2.1.4]
[AccurateRip ID: 0010747f-00972792-a808420c] found.
Track [ CRC | V2 ] Status
01 [0cb31f44|c1215ef5] (0+0/2) No match
02 [0d536e6d|34276b7b] (0+0/2) No match
03 [44948660|e7057706] (0+0/2) No match
04 [55825e64|d3e39618] (0+0/2) No match
05 [e2be7264|c0e61e95] (0+0/2) No match
06 [ee57a0e2|2073bc97] (0+0/2) No match
07 [4a15a232|afc2c8f8] (0+0/2) No match
08 [ed4732d1|36fc94b2] (0+0/2) No match
09 [bc45fa9c|84823d32] (0+0/2) No match
10 [3b8d32e7|8baf29fe] (0+0/2) No match
11 [db9d09ca|d16aaec7] (0+0/2) No match
12 [63a7da86|14373fba] (0+0/2) No match
Offsetted by 6:
01 [900e3def] (0/2) No match (V2 was not tested)
02 [f4da0ec0] (0/2) No match (V2 was not tested)
03 [2cc035ce] (0/2) No match (V2 was not tested)
04 [2b03e65e] (0/2) No match (V2 was not tested)
05 [79330c77] (0/2) No match (V2 was not tested)
06 [99d42234] (0/2) No match (V2 was not tested)
07 [ac0808b1] (0/2) No match (V2 was not tested)
08 [d4738174] (0/2) No match (V2 was not tested)
09 [bb3c8b74] (0/2) No match (V2 was not tested)
10 [fedaeed2] (0/2) No match (V2 was not tested)
11 [af4b01db] (0/2) No match (V2 was not tested)
12 [d35d1ea2] (0/2) No match (V2 was not tested)

Track Peak [ CRC32 ] [W/O NULL] [ LOG ]
– 93,2 [AB269617] [28C11B5A] CRC32
01 93,2 [9E5E1227] [EA83037F]
02 93,2 [ED70106E] [086B188E]
03 93,2 [FAA2D2C9] [9246CA38]
04 93,2 [D66D7D7F] [9C4112D7]
05 93,2 [1B759AF1] [E5854BF5]
06 93,2 [B0DF63A0] [B5BD7CE7]
07 93,2 [C60E7A12] [0FE133C4]
08 93,2 [AB9644BA] [E6D5F971]
09 93,2 [63BDBC48] [B5171995]
10 93,2 [E3EA14FF] [C3EE2072]
11 93,2 [166ADE4C] [5422451C]
12 93,2 [C3B7DF84] [00E83175]


Gama Bomb: Discography (2005-2018)

All thanks go to Zloslaw

Thrash Metal in my Blog

Download Gama Bomb: Discography (2005-2018):