Subcategories

Gato Barbieri - Chapter One: Latin America (1973) [Reissue 2009] (Repost)

Posted By: gribovar
Gato Barbieri - Chapter One: Latin America (1973) [Reissue 2009] (Repost)

Gato Barbieri - Chapter One: Latin America (1973) [Reissue 2009]
EAC Rip | WavPack (image+.cue+log) - 278 MB | MP3 CBR 320 kbps (LAME 3.93) - 101 MB | Covers - 78 MB
Genre: Jazz | RAR 3% Rec. | Label: Verve Records (0602517908963)

When Gato Barbieri signed to Impulse! Records in 1973 for a series of critically lauded albums, he had already enjoyed a celebrated career as a vanguard musician who had worked with Don Cherry and Abdullah Ibrahim (then known as Dollar Brand), recorded for three labels as a leader, and scored and performed the soundtrack to director Bernardo Bertolucci's film Last Tango in Paris. Chapter One: Latin America was a huge step forward musically for the Argentinean-born saxophonist, even as it looked to the music of his heritage. This turned out to be the first of four chapters in his series on Latin America, and for it he teamed not with established jazz musicians, but instead folk and traditional musicians from his native country, and recorded four of the album's five cuts in Buenos Aires - the final track, a multi-tracked solo piece, was recorded in Rio de Janeiro. The music found here doesn't walk a line between the two worlds, but freely indulges them. The enormous host of musicians on the date played everything from wooden flutes to electric and acoustic guitars, bomba drums and quenas, and Indian harps and charangos, creating a passionate and deeply emotive sound that echoed across not only miles but also centuries. At the helm was Barbieri, playing in his rawest and most melodic style to date, offering these melodies, harmonies, and rhythms as a singular moment in the history of jazz. While the entire album flows seamlessly from beginning to end, the A-side, comprised of Barbieri's own "Encuentros" and J. Asunción Flores and M. Ortiz Guerrero's classic "India," is the clear standout. That said, the four-part suite that commences side two - "La China Leoncia Arreo la Correntinada Trajo Entre la Muchachada la Flor de la Juventud" - is a work of such staggering drama and raw beauty that it is perhaps the single highest achievement in Barbieri's recorded catalog as an artist. Simply put, this album, like its remaining chapters, makes up one of the great all but forgotten masterpieces in 1970s jazz. Thankfully, Verve has brought this set back into print on CD as part of its wonderfully mastered, budget-priced Originals series.
Tracklist:
01. Encuentros
02. India
03. La China
04. Nunca Mas
05. To Be Continued

Total time: 42:52

Exact Audio Copy V0.99 prebeta 5 from 4. May 2009

EAC extraction logfile from 16. March 2010, 18:59

Gato Barbieri / Chapter One - Latin America

Used drive : HL-DT-STDVD-RAM GH22LP20 Adapter: 4 ID: 1

Read mode : Secure
Utilize accurate stream : Yes
Defeat audio cache : Yes
Make use of C2 pointers : No

Read offset correction : 102
Overread into Lead-In and Lead-Out : No
Fill up missing offset samples with silence : Yes
Delete leading and trailing silent blocks : No
Null samples used in CRC calculations : Yes
Used interface : Installed external ASPI interface

Used output format : User Defined Encoder
Selected bitrate : 896 kBit/s
Quality : High
Add ID3 tag : No
Command line compressor : C:\Program Files (x86)\Exact Audio Copy\WAV Pack\wavpack.exe
Additional command line options : -hlmx2 %s


TOC of the extracted CD

Track | Start | Length | Start sector | End sector
––––––––––––––––––––––––––––-
1 | 0:00.00 | 12:28.26 | 0 | 56125
2 | 12:28.26 | 8:58.12 | 56126 | 96487
3 | 21:26.38 | 13:33.30 | 96488 | 157492
4 | 34:59.68 | 5:25.13 | 157493 | 181880
5 | 40:25.06 | 2:27.02 | 181881 | 192907


Range status and errors

Selected range

Filename X:\Releases RAW\Gato Barbieri - Chapter One - Latin America\Gato Barbieri - Chapter One - Latin America.wav

Peak level 98.8 %
Range quality 100.0 %
Test CRC 1E9CCF3A
Copy CRC 1E9CCF3A
Copy OK

No errors occurred


AccurateRip summary

Track 1 accurately ripped (confidence 3) [1BA300CB]
Track 2 accurately ripped (confidence 3) [5438AB52]
Track 3 accurately ripped (confidence 3) [B685024C]
Track 4 accurately ripped (confidence 3) [5BF4B039]
Track 5 accurately ripped (confidence 3) [01E58EDB]

All tracks accurately ripped

End of status report

[CUETools log; Date: 27.10.2017 22:58:22; Version: 2.1.4]
[CTDB TOCID: dIOfyS7tWwNBeq_PsF8C6Pwo89s-] found.
Track | CTDB Status
1 | (36/36) Accurately ripped
2 | (35/36) Accurately ripped
3 | (36/36) Accurately ripped
4 | (36/36) Accurately ripped
5 | (36/36) Accurately ripped
[AccurateRip ID: 000a7360-002f47ae-340a0c05] found.
Track [ CRC | V2 ] Status
01 [1ba300cb|19555edd] (10+16/31) Accurately ripped
02 [5438ab52|5718339c] (10+16/31) Accurately ripped
03 [b685024c|e3c928be] (10+16/31) Accurately ripped
04 [5bf4b039|cba9717f] (10+16/31) Accurately ripped
05 [01e58edb|6c4d8569] (10+16/31) Accurately ripped
Offsetted by -667:
01 [c73c6acb] (00/31) No match (V2 was not tested)
02 [de1bcb28] (00/31) No match (V2 was not tested)
03 [c78554cd] (00/31) No match (V2 was not tested)
04 [7395959f] (00/31) No match (V2 was not tested)
05 [2e7d8181] (00/31) No match (V2 was not tested)

Track Peak [ CRC32 ] [W/O NULL] [ LOG ]
– 98,8 [1E9CCF3A] [8D768CCF] CRC32
01 98,8 [C1B4328C] [935BE4A4]
02 98,8 [6431C4AF] [AB37309D]
03 98,8 [F500A03B] [EA169BD3]
04 98,8 [1BC6707E] [B071C7D2]
05 98,8 [9847524A] [ED6E31C4]

Thanks to Гордый