Subcategories

Gaudi - Bass, Sweat & Tears

Posted By: FLESH
Gaudi - Bass, Sweat & Tears

Gaudi - Bass, Sweat & Tears
Electronic, Dub, Latin, Downtempo, Tribal, Ambient
FLAC +cue+log | 450.5 Mb | MP3 192 Kbps | 102.6 Mb | Covers
Label: Interchill Records | Catalog#: ICHILL CD 0018 | Country: Canada | Released: 2004
Bass, Sweat and Tears is an evocative, deep and elegant work in which indigenous themes and global beats contrast and compliment each other.
The key undertaking in Gaudis work is to unify different forms of music from around the world and represent them in his own personal style, while at the same time, most importantly, keeping the heart and significance of the cultural roots.
In the making of this album, Gaudi worked with and recorded a total of 42 musicians from all over the world, creating a blend of global influences that evades categorisation and reflects wholly Interchills philosophy that irrespective of which corner of the globe it comes from, good music is good music.
Tracklist

1 Tribalove 6:05
2 Sufani 5:35
3 Dub It 4:21
4 Babylon Flamenco 5:27
5 Ayahuasca Deep Fall 5:48
6 Chaine A Chaine 5:06
7 Ci Fice Lu Mundu 4:45
8 Native Dub 5:19
9 Tutta Pe' Me 5:23
10 …And The Earth Said: Oh My God! 5:43
11 Kimiyaa E Moraad 2:10
12 Theremystical 4:55
13 Meena 4:37
14 Truthful Old Man 4:32
15 Chant Thermique 7:12

Exact Audio Copy V1.0 beta 1 from 15. November 2010

EAC extraction logfile from 17. December 2010, 0:22

Gaudi / Bass, Sweat & Tears

Used drive : SlimtypeDVD A DS8A4S Adapter: 1 ID: 0

Read mode : Secure
Utilize accurate stream : Yes
Defeat audio cache : Yes
Make use of C2 pointers : No

Read offset correction : 6
Overread into Lead-In and Lead-Out : No
Fill up missing offset samples with silence : Yes
Delete leading and trailing silent blocks : No
Null samples used in CRC calculations : Yes
Used interface : Native Win32 interface for Win NT & 2000

Used output format : User Defined Encoder
Selected bitrate : 896 kBit/s
Quality : High
Add ID3 tag : No
Command line compressor : C:\Program Files\FLAC\flac.exe
Additional command line options : -8 -V %s


TOC of the extracted CD

Track | Start | Length | Start sector | End sector
––––––––––––––––––––––––––––-
1 | 0:00.00 | 6:05.60 | 0 | 27434
2 | 6:05.60 | 5:35.29 | 27435 | 52588
3 | 11:41.14 | 4:21.35 | 52589 | 72198
4 | 16:02.49 | 5:27.32 | 72199 | 96755
5 | 21:30.06 | 5:48.24 | 96756 | 122879
6 | 27:18.30 | 5:06.14 | 122880 | 145843
7 | 32:24.44 | 4:45.21 | 145844 | 167239
8 | 37:09.65 | 5:19.31 | 167240 | 191195
9 | 42:29.21 | 5:23.74 | 191196 | 215494
10 | 47:53.20 | 5:43.19 | 215495 | 241238
11 | 53:36.39 | 2:10.56 | 241239 | 251044
12 | 55:47.20 | 4:55.09 | 251045 | 273178
13 | 60:42.29 | 4:37.16 | 273179 | 293969
14 | 65:19.45 | 4:32.03 | 293970 | 314372
15 | 69:51.48 | 7:12.68 | 314373 | 346840


Range status and errors

Selected range

Filename D:\Music\Interchill Records\18 - Gaudi - 2004 - Bass, Sweat & Tears [ICHILLCD018]\Gaudi - Bass, Sweat & Tears.wav

Peak level 100.0 %
Extraction speed 0.4 X
Range quality 100.0 %
Copy CRC 5179A35B
Copy OK

No errors occurred


AccurateRip summary

Track 1 not present in database
Track 2 not present in database
Track 3 not present in database
Track 4 not present in database
Track 5 not present in database
Track 6 not present in database
Track 7 not present in database
Track 8 not present in database
Track 9 not present in database
Track 10 not present in database
Track 11 not present in database
Track 12 not present in database
Track 13 not present in database
Track 14 not present in database
Track 15 not present in database

None of the tracks are present in the AccurateRip database

End of status report