Subcategories

Gazpacho - Missa Atropos (2011) {Kscope}

Posted By: tiburon
Gazpacho - Missa Atropos (2011) {Kscope}

Gazpacho - Missa Atropos (2011) {Kscope}
EAC 1.0b1 | FLAC tracks level 8 | Cue+Log+M3U | Full Scans 300dpi | 408MB + 5% Recovery
MP3 CBR 320 Kbps | 135MB + 5% Recovery
Genre: Progressive rock, Alternative Rock
Gazpacho - Missa Atropos (2011) {Kscope}

Gazpacho's music has been described by one critic as being "classical post ambient nocturnal atmospheric neo-progressive folk world rock". The music has been compared to A-ha, Radiohead, Marillion and Porcupine Tree. Without the backing of a major label, Gazpacho is one of many bands now utilizing the resources of the Internet to create word of mouth promotional opportunities, with a reliance on their website and its forum, online shopping, MySpace and other 'net initiatives to spread the word. This allows the band to hold down full time jobs, yet still manage to release an album a year with total artistic control over their compositions and distribution.
Track List
1. Mass for atropos 1
2. Defense Mechanism
3. I Was Never Here
4. Snail
5. River
6. Mass for atropos 2
7. Missa Atropos
8. She's Awake
9. Vera
10. Will To Live
11. Mass for atropos 3
12. Splendid Isolation
13. Audience

musicians
Jan Henrik Ohme - vocals
Jon-Arne Vilbo - guitar
Lars Erik Asp - drums
Mikael Kromer - mandolin, violin
Thomas Andersen - keyboards

Produced by Gazpacho


Exact Audio Copy V1.0 beta 1 from 15. November 2010

EAC extraction logfile from 15. August 2011, 15:44

Gazpacho / Missa Atropos

Used drive : PLDS DVD+-RW DS-8A5SH Adapter: 0 ID: 0

Read mode : Secure
Utilize accurate stream : Yes
Defeat audio cache : Yes
Make use of C2 pointers : No

Read offset correction : 6
Overread into Lead-In and Lead-Out : No
Fill up missing offset samples with silence : Yes
Delete leading and trailing silent blocks : No
Null samples used in CRC calculations : Yes
Used interface : Native Win32 interface for Win NT & 2000
Gap handling : Appended to previous track

Used output format : User Defined Encoder
Selected bitrate : 256 kBit/s
Quality : High
Add ID3 tag : No
Command line compressor : C:\Program Files (x86)\FLAC\flac.exe
Additional command line options : -8 -V -T "ARTIST=%a" -T "TITLE=%t" -T "ALBUM=%g" -T "DATE=%y" -T "TRACKNUMBER=%n" -T "TOTALTRACKS=%x" -T "GENRE=%m" -T "ALBUMARTIST=%v" -T "ALBUM ARTIST=%v" -T "COMMENT=EAC Secure Mode, Test & Copy, AccurateRip, FLAC -8" %s


TOC of the extracted CD

Track | Start | Length | Start sector | End sector
––––––––––––––––––––––––––––-
1 | 0:00.00 | 1:43.46 | 0 | 7770
2 | 1:43.46 | 6:29.60 | 7771 | 37005
3 | 8:13.31 | 3:12.64 | 37006 | 51469
4 | 11:26.20 | 3:39.67 | 51470 | 67961
5 | 15:06.12 | 6:07.21 | 67962 | 95507
6 | 21:13.33 | 2:06.45 | 95508 | 105002
7 | 23:20.03 | 8:25.06 | 105003 | 142883
8 | 31:45.09 | 3:42.04 | 142884 | 159537
9 | 35:27.13 | 7:26.30 | 159538 | 193017
10 | 42:53.43 | 3:07.04 | 193018 | 207046
11 | 46:00.47 | 1:39.71 | 207047 | 214542
12 | 47:40.43 | 8:33.37 | 214543 | 253054
13 | 56:14.05 | 2:52.13 | 253055 | 265967


Track 1

Filename C:\Users\porcupine\Desktop\EAC\01 - Mass for Atropos 1.wav

Pre-gap length 0:00:02.00

Peak level 71.9 %
Extraction speed 1.5 X
Track quality 99.8 %
Test CRC 42C20F96
Copy CRC 42C20F96
Accurately ripped (confidence 6) [FEE239E2]
Copy OK

Track 2

Filename C:\Users\porcupine\Desktop\EAC\02 - Defense Mechanism.wav

Peak level 86.7 %
Extraction speed 3.0 X
Track quality 100.0 %
Test CRC ED5A5810
Copy CRC ED5A5810
Accurately ripped (confidence 6) [459E7D1A]
Copy OK

Track 3

Filename C:\Users\porcupine\Desktop\EAC\03 - I Was Never Here.wav

Peak level 79.0 %
Extraction speed 3.1 X
Track quality 100.0 %
Test CRC 550C8568
Copy CRC 550C8568
Accurately ripped (confidence 6) [7C391295]
Copy OK

Track 4

Filename C:\Users\porcupine\Desktop\EAC\04 - Snail.wav

Peak level 90.7 %
Extraction speed 3.3 X
Track quality 100.0 %
Test CRC 49EB6452
Copy CRC 49EB6452
Accurately ripped (confidence 6) [BEFBABD6]
Copy OK

Track 5

Filename C:\Users\porcupine\Desktop\EAC\05 - River.wav

Peak level 99.6 %
Extraction speed 3.4 X
Track quality 99.9 %
Test CRC E8AF983E
Copy CRC E8AF983E
Accurately ripped (confidence 6) [23C7D184]
Copy OK

Track 6

Filename C:\Users\porcupine\Desktop\EAC\06 - Mass for Atropos 2 - You're going to Die Up There.wav

Peak level 78.2 %
Extraction speed 3.4 X
Track quality 100.0 %
Test CRC 8C0F3BE7
Copy CRC 8C0F3BE7
Accurately ripped (confidence 6) [DA452AD5]
Copy OK

Track 7

Filename C:\Users\porcupine\Desktop\EAC\07 - Missa Atropos.wav

Peak level 91.9 %
Extraction speed 4.0 X
Track quality 99.9 %
Test CRC A5105B36
Copy CRC A5105B36
Accurately ripped (confidence 6) [C8E0711A]
Copy OK

Track 8

Filename C:\Users\porcupine\Desktop\EAC\08 - She's Awake.wav

Peak level 94.7 %
Extraction speed 4.3 X
Track quality 100.0 %
Test CRC 6E788CF0
Copy CRC 6E788CF0
Accurately ripped (confidence 6) [1C5BDBF3]
Copy OK

Track 9

Filename C:\Users\porcupine\Desktop\EAC\09 - Vera.wav

Peak level 96.1 %
Extraction speed 4.9 X
Track quality 100.0 %
Test CRC 1EEB078C
Copy CRC 1EEB078C
Accurately ripped (confidence 6) [EC59B6AF]
Copy OK

Track 10

Filename C:\Users\porcupine\Desktop\EAC\10 - Will to Live.wav

Peak level 86.6 %
Extraction speed 4.6 X
Track quality 100.0 %
Test CRC F1D518C7
Copy CRC F1D518C7
Accurately ripped (confidence 6) [A5228610]
Copy OK

Track 11

Filename C:\Users\porcupine\Desktop\EAC\11 - Mass for Atropos 3.wav

Peak level 96.4 %
Extraction speed 2.8 X
Track quality 99.8 %
Test CRC 704CFD93
Copy CRC 704CFD93
Accurately ripped (confidence 6) [DC7EB9D9]
Copy OK

Track 12

Filename C:\Users\porcupine\Desktop\EAC\12 - Splendid Isolation.wav

Peak level 97.2 %
Extraction speed 5.5 X
Track quality 100.0 %
Test CRC 8FC62A73
Copy CRC 8FC62A73
Accurately ripped (confidence 6) [0C0209D0]
Copy OK

Track 13

Filename C:\Users\porcupine\Desktop\EAC\13 - An Audience.wav

Peak level 90.8 %
Extraction speed 4.9 X
Track quality 100.0 %
Test CRC 2EC267BA
Copy CRC 2EC267BA
Accurately ripped (confidence 6) [B6A87C64]
Copy OK


All tracks accurately ripped

No errors occurred

End of status report

==== Log checksum DB61B1F4CABACB1BDA2F5D827FC69ED78F0986592087854CE0BF43F16B1D1BCD ====

Gazpacho - Missa Atropos (2011) {Kscope}


Thanks to the original ripper