Tags
Language
Tags

Geezer - Groovy (2020)

Posted By: v3122
Geezer - Groovy (2020)

Geezer - Groovy (2020)
EAC | Flac(Image) + Cue + Log & MP3 CBR 320Kbps
Heavy Psych Sounds, HPS131 | ~ 297 or 108 Mb | Artwork(jpg) -> 2.37 Mb
Heavy Blues Rock

Psychedelic Stoner Rockers GEEZER make a welcome return with their new album Groovy. This album feels like the spiritual successor to their 2016 self-titled record which was my favourite album of the year and the best album I think GEEZER released so far. However, that view has changed again with their new offering. As GEEZER return with a steady mix of Blues Rock, Psych Rock, Space Rock and Stoner Rock that’s has a deep passion for all things for 70s Heavy Rock.

GEEZER sound different on this album compared to their previous albums. As they deliver an album that’s more content and riff-driven from start to finish. The Psychedelic/Space Rock mode of the album maybe the main driving force of this album but the band haven’t forgotten their classic Blues Rock/Stoner Rock roots. As Groovy is the album that will speak to all GEEZER fans and even bring a few more along for the action packed ride that this album ultimately delivers.

Opening song – Dig – opens with a heavy sprawling doom based riff before expanding into a trippy Blues Rock driven number which allows the band to merge their trademark sound with a riff-centric 70s outlook and it’s glorious on how GEEZER deliver the epic sounding riffs on this song. It may sound quite simple in places but the band have a lot going on with this song and for the structure of the whole album. Pat Harrington brings his grizzled charm to the album with kick-ass grooves, vocals and lyrics to match. Richie and Steve provide the fantastic rhythm section for this album to truly thrive.

Second song – Atlas Electra – is a trippy wonderland of different Psychedelic and Spaced Out sounds with Geezer playing a more subdued and slower style of music. The song is quite heavy in places but it’s the slow-paced and easy-going nature of the song that instantly draw you in. The lyrics feel inspired by 60s/70s Psychedelic Hard Rock and GEEZER feel more restrained on this song.

Third song – Dead Soul Scroll – feels like it could have easily came off their earlier releases with that instant catchy Psychedelic vibe being played at a lush slow pace. Though, the song becomes more different when the heavy guitars appear and Pat becomes Part-Shaman and Part-Spiritual Guide with his laid-back vocals that ooze centuries old Stoner Rock knowledge. This is one of my favourite songs on the album. As GEEZER try different things on this song especially with the Ambient Sounds and lyrics that have a hidden depth to them.

Fourth song – Awake – opens with a classic style of 70s Blues Rock/Funk/Psychedelic music as GEEZER bring a more classic hard rock approach to this song. The second half of the song sees GEEZER play an avalanche of non-stop heavy riffs with a cool organ being played in the background.

GEEZER carry on with the Psychedelic/Spaced Out theatrics on the second half of the album with the band never missing a beat in playing highly addictive and highly infectious grooves that show you why these guys are so highly thought of within the Stoner Rock/Metal scene.

The second half album does see GEEZER playing heavier riffs and familiar sounds on songs such as: Drowning On Empty, Groovy, Slide Mountain and Black Owl which is the standout song on the album. As GEEZER play a more progressive style of Psych/Stoner/Spaced Out Rock with the band having more time to play with on this song.

Heavy Psych Sounds are releasing this album and I can’t think of a better label for GEEZER to be signed at this moment in time. As Heavy Psych Sounds are on a rich vein of form releasing Psychedelic Stoner Rock/Metal releases that appeal to fans across the whole Stoner Rock/Metal spectrum.

GROOVY is a delightfully heavy experience with GEEZER back on top-form and releasing my favourite album from them yet. GROOVY is another album of the year contender and perhaps one of the Stoner Rock albums of the year next to the new albums from LOWRIDER and BLACK RAINBOWS…

~ outlawsofthesun.blogspot.com
Geezer - Groovy (2020):

Geezer - Groovy (2020)

Tracklist:

01. Dig
02. Atlas Electra
03. Dead Soul Scroll
04. Awake
05. Groovy
06. Drowning on Empty
07. Slide Mountain
08. Black Owl

Pat Harrington – Guitar, Vocals
Richie Touseull – Bass
Steven Markota – Drums, Percussion

Jeff Mercel – Keyboards (tracks: 4,5)

Exact Audio Copy V1.3 from 2. September 2016

EAC extraction logfile from 23. July 2020, 23:43

Geezer / Groovy

Used drive : ASUS DRW-24D5MT Adapter: 1 ID: 0

Read mode : Secure
Utilize accurate stream : Yes
Defeat audio cache : Yes
Make use of C2 pointers : No

Read offset correction : 6
Overread into Lead-In and Lead-Out : No
Fill up missing offset samples with silence : Yes
Delete leading and trailing silent blocks : No
Null samples used in CRC calculations : Yes
Used interface : Native Win32 interface for Win NT & 2000
Gap handling : Appended to previous track

Used output format : User Defined Encoder
Selected bitrate : 1024 kBit/s
Quality : High
Add ID3 tag : No
Command line compressor : C:\Program Files (x86)\Exact Audio Copy\Flac\flac.exe
Additional command line options : -V -8 -T "Genre=%genre%" -T "Artist=%artist%" -T "Title=%title%" -T "Album=%albumtitle%" -T "Date=%year%" -T "Tracknumber=%tracknr%" -T "Comment=%comment%" %source%


TOC of the extracted CD

Track | Start | Length | Start sector | End sector
––––––––––––––––––––––––––––-
1 | 0:00.00 | 5:08.18 | 0 | 23117
2 | 5:08.18 | 6:14.31 | 23118 | 51198
3 | 11:22.49 | 5:30.33 | 51199 | 75981
4 | 16:53.07 | 5:38.32 | 75982 | 101363
5 | 22:31.39 | 4:19.58 | 101364 | 120846
6 | 26:51.22 | 4:17.07 | 120847 | 140128
7 | 31:08.29 | 5:00.27 | 140129 | 162655
8 | 36:08.56 | 9:26.17 | 162656 | 205122


Track 1

Filename H:\Sket4er\Geezer – Groovy 2020\01 Dig.wav

Pre-gap length 0:00:02.00

Peak level 96.6 %
Extraction speed 5.0 X
Track quality 100.0 %
Test CRC 4C7F86C3
Copy CRC 4C7F86C3
Track not present in AccurateRip database
Copy OK

Track 2

Filename H:\Sket4er\Geezer – Groovy 2020\02 Atlas Electra.wav

Peak level 96.6 %
Extraction speed 5.6 X
Track quality 100.0 %
Test CRC D5D8C3B6
Copy CRC D5D8C3B6
Track not present in AccurateRip database
Copy OK

Track 3

Filename H:\Sket4er\Geezer – Groovy 2020\03 Dead Soul Scroll.wav

Peak level 96.6 %
Extraction speed 6.1 X
Track quality 100.0 %
Test CRC 76DC69AE
Copy CRC 76DC69AE
Track not present in AccurateRip database
Copy OK

Track 4

Filename H:\Sket4er\Geezer – Groovy 2020\04 Awake.wav

Peak level 96.6 %
Extraction speed 6.6 X
Track quality 100.0 %
Test CRC 32439B38
Copy CRC 32439B38
Track not present in AccurateRip database
Copy OK

Track 5

Filename H:\Sket4er\Geezer – Groovy 2020\05 Groovy.wav

Peak level 96.6 %
Extraction speed 6.8 X
Track quality 100.0 %
Test CRC 8BF964BC
Copy CRC 8BF964BC
Track not present in AccurateRip database
Copy OK

Track 6

Filename H:\Sket4er\Geezer – Groovy 2020\06 Drowning On Empty.wav

Peak level 96.6 %
Extraction speed 7.1 X
Track quality 100.0 %
Test CRC D085DE1B
Copy CRC D085DE1B
Track not present in AccurateRip database
Copy OK

Track 7

Filename H:\Sket4er\Geezer – Groovy 2020\07 Slide Mountain.wav

Peak level 96.6 %
Extraction speed 7.5 X
Track quality 100.0 %
Test CRC 1ADC39A8
Copy CRC 1ADC39A8
Track not present in AccurateRip database
Copy OK

Track 8

Filename H:\Sket4er\Geezer – Groovy 2020\08 Black Owl.wav

Peak level 96.6 %
Extraction speed 8.3 X
Track quality 100.0 %
Test CRC F8B92C33
Copy CRC F8B92C33
Track not present in AccurateRip database
Copy OK


None of the tracks are present in the AccurateRip database

No errors occurred

End of status report

–– CUETools DB Plugin V2.1.6

[CTDB TOCID: y1kdMfnU.AEmFUhx5qaH6.kKAAQ-] found
Submit result: y1kdMfnU.AEmFUhx5qaH6.kKAAQ- has been confirmed
Track | CTDB Status
1 | (1/1) Accurately ripped
2 | (1/1) Accurately ripped
3 | (1/1) Accurately ripped
4 | (1/1) Accurately ripped
5 | (1/1) Accurately ripped
6 | (1/1) Accurately ripped
7 | (1/1) Accurately ripped
8 | (1/1) Accurately ripped


==== Log checksum FCC4EBE73D3284137DC79CFB462AC8C5C6953416B6EBAD92264658F255E77848 ====


[CUETools log; Date: 24.07.2020 15:53:22; Version: 2.1.4]
[AccurateRip ID: 000d6f22-005979f2-500aae08] disk not present in database.

Track Peak [ CRC32 ] [W/O NULL] [ LOG ]
– 96,6 [2C75B3D8] [7B72A9F7]
01 96,6 [4C7F86C3] [0D1904FD] CRC32
02 96,6 [D5D8C3B6] [34176CFA] CRC32
03 96,6 [76DC69AE] [23DE5D19] CRC32
04 96,6 [32439B38] [8F20F7AA] CRC32
05 96,6 [8BF964BC] [665A2C8C] CRC32
06 96,6 [D085DE1B] [143CFFA2] CRC32
07 96,6 [1ADC39A8] [76EC30C1] CRC32
08 96,6 [F8B92C33] [FD70B8A0] CRC32


Geezer - Groovy (2020)

All thanks go to Sket4er

Download Geezer - Groovy (2020):