Subcategories

Gene Ammons & Sonny Stitt - Boss Tenors: Straight Ahead from Chicago August 1961 (1962) [Reissue 1992]

Posted By: gribovar
Gene Ammons & Sonny Stitt - Boss Tenors: Straight Ahead from Chicago August 1961 (1962) [Reissue 1992]

Gene Ammons & Sonny Stitt - Boss Tenors: Straight Ahead from Chicago August 1961 (1962) [Reissue 1992]
EAC Rip | FLAC (image+.cue+log) - 257 MB | MP3 CBR 320 kbps (LAME 3.93) - 96 MB | Covers (5 MB) included
Genre: Jazz | RAR 3% Rec. | Label: Verve (837 440-2)

This encounter between tenor saxophonist Gene Ammons and Sonny Stitt (who doubles on tenor and alto) is a true classic. Ammons and Stitt teamed together many times over a three-decade period, including co-leading a band during 1950-1952, but Boss Tenors is arguably their finest recording. Backed by pianist John Houston, bassist Buster Williams, and drummer George Brown, Ammons and Stitt battle it out on "There Is No Greater Love," Ammons' "The One Before This," "Autumn Leaves," "Blues Up and Down," and Stitt's "Counter Clockwise." This is competitive bebop at its best, with Stitt and Ammons proving to be equal matches. Essential music for all jazz collections.
Tracklist:
01. There Is No Greater Love
02. The One Before This
03. Autumn Leaves
04. Blues Up And Down
05. Counter Clockwise

Total time: 38:53

Exact Audio Copy V0.99 prebeta 4 from 23. January 2008

EAC extraction logfile from 21. October 2008, 23:22

Gene Ammons & Sonny Stitt / Boss Tenors: Gene Ammons & Sonny St

Used drive : TSSTcorpCDDVDW SH-S223Q Adapter: 3 ID: 0

Read mode : Secure
Utilize accurate stream : Yes
Defeat audio cache : Yes
Make use of C2 pointers : No

Read offset correction : 6
Overread into Lead-In and Lead-Out : No
Fill up missing offset samples with silence : Yes
Delete leading and trailing silent blocks : No
Null samples used in CRC calculations : Yes
Used interface : Installed external ASPI interface

Used output format : User Defined Encoder
Selected bitrate : 768 kBit/s
Quality : High
Add ID3 tag : No
Command line compressor : C:\Program Files (x86)\Exact Audio Copy\FLAC\FLAC.EXE
Additional command line options : -V -8 -T "artist=%a" -T "title=%t" -T "album=%g" -T "date=%y" -T "tracknumber=%n" -T "genre=%m" %s


TOC of the extracted CD

Track | Start | Length | Start sector | End sector
––––––––––––––––––––––––––––-
1 | 0:00.32 | 6:34.13 | 32 | 29594
2 | 6:34.45 | 7:13.00 | 29595 | 62069
3 | 13:47.45 | 6:36.12 | 62070 | 91781
4 | 20:23.57 | 8:50.63 | 91782 | 131594
5 | 29:14.45 | 9:38.22 | 131595 | 174966


Range status and errors

Selected range

Filename C:\Audio\WinRar\Gene Ammons & Sonny Stitt - Boss Tenors (1961) [FLAC Full Scans]\Gene Ammons & Sonny Stitt - Boss Tenors Gene Ammons & Sonny St.wav

Peak level 83.4 %
Range quality 100.0 %
Test CRC 9AA4A88D
Copy CRC 9AA4A88D
Copy OK

No errors occurred


AccurateRip summary

Track 1 accurately ripped (confidence 2) [24BA1E65]
Track 2 accurately ripped (confidence 2) [A94989D3]
Track 3 accurately ripped (confidence 2) [2B15A4ED]
Track 4 accurately ripped (confidence 2) [DE335C7C]
Track 5 accurately ripped (confidence 2) [1BEC8943]

All tracks accurately ripped

End of status report

[CUETools log; Date: 12.06.2019 14:17:42; Version: 2.1.4]
Pregap length 00:00:32.
[CTDB TOCID: q08p1j35RepG9HZBPq9RU6qWykw-] found.
Track | CTDB Status
1 | (42/42) Accurately ripped
2 | (42/42) Accurately ripped
3 | (42/42) Accurately ripped
4 | (42/42) Accurately ripped
5 | (38/42) Accurately ripped
[AccurateRip ID: 00077a39-002367d1-44091c05] found.
Track [ CRC | V2 ] Status
01 [24ba1e65|a86fe1fb] (07+07/42) Accurately ripped
02 [a94989d3|bbfa92ef] (08+07/42) Accurately ripped
03 [2b15a4ed|f4a12729] (08+07/42) Accurately ripped
04 [de335c7c|b67f3070] (07+07/41) Accurately ripped
05 [1bec8943|7ca946bf] (07+07/41) Accurately ripped
Offsetted by 631:
01 [82ee9887] (06/42) Accurately ripped
02 [153121ce] (06/42) Accurately ripped
03 [e73f3035] (06/42) Accurately ripped
04 [e5a2c97a] (06/41) Accurately ripped
05 [d261948f] (06/41) Accurately ripped
Offsetted by 1660:
01 [3ea2b3ad] (02/42) Accurately ripped
02 [295db7df] (02/42) Accurately ripped
03 [d3e78d0d] (02/42) Accurately ripped
04 [ce0f0fb4] (02/41) Accurately ripped
05 [dee21578] (02/41) Accurately ripped
Offsetted by -664:
01 [4d904915] (00/42) No match (V2 was not tested)
02 [dc74aa9b] (00/42) No match (V2 was not tested)
03 [4df4e1ad] (00/42) No match (V2 was not tested)
04 [b17514cc] (00/41) No match (V2 was not tested)
05 [f5c751eb] (00/41) No match (V2 was not tested)

Track Peak [ CRC32 ] [W/O NULL] [ LOG ]
– 83,4 [9AA4A88D] [699F7F2C] CRC32
01 69,8 [1D993172] [249BE176]
02 83,4 [54C459AC] [7D4C7CFF]
03 71,5 [F2BA26B2] [AA503A1E]
04 73,6 [CC302E53] [FC81D7FA]
05 75,5 [041A30EC] [D9E87A9F]

Thanks to Mazeppa

See also:
Gene Ammons - Blue Gene (1958)
Richard Holmes & Gene Ammons - Groovin' with Jug (1961)
Sonny Stitt with Jack McDuff - Stitt Meets Brother Jack (1962) [Reissue 1996]
Sonny Stitt - My Mother's Eyes (1963) [Reissue 2007]
The Sonny Stitt Quartet - New York Jazz (1956) [Reissue 2003]
Sonny Stitt - 12! (1973) [Reissue 1999]