Subcategories
Tags
Language
Tags

Gene Krupa - Four Classic Albums (1954-1957) [Reissue 2014]

Posted By: gribovar
Gene Krupa - Four Classic Albums (1954-1957) [Reissue 2014]

Gene Krupa - Four Classic Albums (1954-1957) [Reissue 2014]
EAC Rip | FLAC (image+.cue+log) - 549 MB | MP3 CBR 320 kbps (LAME 3.93) - 375 MB | Covers - 28 MB
Genre: Jazz, Big Band, Swing | RAR 3% Rec. | Label: Avid Jazz (EMSC 1134)

Our first selection “Sing Sing Sing” re-visit a Krupa classic known as the “killer driller” when the great showman drummer stole the show from his band leader, Benny Goodman at the historic Carnegie Hall concert of 1938. For this particular version recorded in New York 1954 we hear Krupa alongside Eddie Shu on clarinet and Teddy Napoleon on piano for a fine ten minute workout! Nice! Our next selection “Gene Krupa Quartet” finds Krupa in a “first” as this is his first recording as a Quartet. Recorded in New York and Los Angeles in 1954 and 1955 he is joined again by Eddie Shu and Bobby Scott with Milt Hinton on bass in L.A. and John Drew on bass in New York. “Krupa Rocks” recorded in Chicago in 1957 finds Krupa joined by Gail Curtis on clarinet, with old chum Teddy Napoleon on piano and Mort Herbert on bass for another Quartet outing which as the original liner notes mention…..”leads to an unusually gentle Krupa set….for the most part”. “The Jazz Rhythms of Gene Krupa”was recorded around the same time as the “Quartet” album in 1954 and 1955 and again features Eddie Shu and Bobby Scott with Milt Hinton on bass in L.A. and John Drew on bass in New York and Teddy Napoleon on piano in New York.
CD 1 Tracklist:

Sing, Sing, Sing (1954):
01. Don't Be That Way
02. How High the Moon
03. Sing, Sing, Sing
04. Love for Sale
05. Booted
06. This Can't Be Love
07. Harmonica Shu Boogie
08. September Song

Gene Krupa Quartet (1955):
09. Makin' Whoopee
10. All of Me
11. Sleepy Lagoon
12. Little White Lies
13. Strike Up the Band
14. Bach's Blues

Krupa Rocks (1957):
15. I Only Have Eyes for You

Total time: 01:19:54

CD 2 Tracklist:

Krupa Rocks (1957) (continued):
01. The Gang That Sang Heart of My Heart
02. Gone with the Wind
03. Pick Yourself Up
04. Fire Place Blues
05. But Not for Me
06. Memories of You
07. Three Little Words
08. Avalon
09. Indiana (Back Home Again in Indiana)

The Jazz Rhythms of Gene Krupa (1955):
10. Tenderly
11. Tepee
12. 'S Wonderful
13. Hippdeebip
14. Krupa's Wail
15. Strike Up the Band
16. Undecided
17. Gene's Bass Blues

Total time: 01:19:25

Exact Audio Copy V1.3 from 2. September 2016

EAC extraction logfile from 20. April 2020, 15:16

Gene Krupa / Four Classic Albums - CD1

Used drive : TSSTcorpCDDVDW SH-224FB Adapter: 1 ID: 0

Read mode : Secure
Utilize accurate stream : Yes
Defeat audio cache : Yes
Make use of C2 pointers : No

Read offset correction : 6
Overread into Lead-In and Lead-Out : No
Fill up missing offset samples with silence : Yes
Delete leading and trailing silent blocks : No
Null samples used in CRC calculations : Yes
Used interface : Native Win32 interface for Win NT & 2000

Used output format : User Defined Encoder
Selected bitrate : 128 kBit/s
Quality : High
Add ID3 tag : No
Command line compressor : C:\Program Files (x86)\Exact Audio Copy\Flac\flac.exe
Additional command line options : -V -8 -T "Genre=%genre%" -T "Artist=%artist%" -T "Title=%title%" -T "Album=%albumtitle%" -T "Date=%year%" -T "Tracknumber=%tracknr%" -T "Comment=%comment%" %source%


TOC of the extracted CD

Track | Start | Length | Start sector | End sector
––––––––––––––––––––––––––––-
1 | 0:00.00 | 3:34.29 | 0 | 16078
2 | 3:34.29 | 4:45.74 | 16079 | 37527
3 | 8:20.28 | 10:08.64 | 37528 | 83191
4 | 18:29.17 | 2:49.16 | 83192 | 95882
5 | 21:18.33 | 5:04.61 | 95883 | 118743
6 | 26:23.19 | 3:11.11 | 118744 | 133079
7 | 29:34.30 | 3:01.18 | 133080 | 146672
8 | 32:35.48 | 3:31.10 | 146673 | 162507
9 | 36:06.58 | 6:41.54 | 162508 | 192636
10 | 42:48.37 | 7:00.56 | 192637 | 224192
11 | 49:49.18 | 5:26.43 | 224193 | 248685
12 | 55:15.61 | 6:56.58 | 248686 | 279943
13 | 62:12.44 | 6:08.07 | 279944 | 307550
14 | 68:20.51 | 5:34.73 | 307551 | 332673
15 | 73:55.49 | 5:58.05 | 332674 | 359528


Range status and errors

Selected range

Filename D:\ssagwebster\Gene Krupa - Four Classic Albums (2014, 2CD)\CD1\Gene Krupa - Four Classic Albums - CD1.wav

Peak level 94.8 %
Extraction speed 3.7 X
Range quality 100.0 %
Test CRC 70A3F1C8
Copy CRC 70A3F1C8
Copy OK

No errors occurred


AccurateRip summary

Track 1 accurately ripped (confidence 2) [3DC1DFF5] (AR v2)
Track 2 accurately ripped (confidence 2) [B65895D3] (AR v2)
Track 3 accurately ripped (confidence 2) [A7E3934E] (AR v2)
Track 4 accurately ripped (confidence 2) [7EFD17B8] (AR v2)
Track 5 accurately ripped (confidence 2) [5867B785] (AR v2)
Track 6 accurately ripped (confidence 2) [9A0B2BCB] (AR v2)
Track 7 accurately ripped (confidence 2) [6FCE5FCC] (AR v2)
Track 8 accurately ripped (confidence 2) [A55EC24C] (AR v2)
Track 9 accurately ripped (confidence 2) [077FC914] (AR v2)
Track 10 accurately ripped (confidence 2) [585E01E4] (AR v2)
Track 11 accurately ripped (confidence 2) [AA1485E6] (AR v2)
Track 12 accurately ripped (confidence 2) [B7F720BB] (AR v2)
Track 13 accurately ripped (confidence 2) [E2EF55C7] (AR v2)
Track 14 accurately ripped (confidence 2) [64849A78] (AR v2)
Track 15 accurately ripped (confidence 2) [F8BD2037] (AR v2)

All tracks accurately ripped

End of status report

==== Log checksum BE9F1CBA620699FA219470DE6F4E9B1FBB429825451371065E62D69E4D0A50FA ====

[CUETools log; Date: 09.06.2020 14:41:42; Version: 2.1.4]
[CTDB TOCID: 3VNoX2COLQShxpYoV06q3MDKH3k-] found.
Track | CTDB Status
1 | (6/6) Accurately ripped
2 | (6/6) Accurately ripped
3 | (6/6) Accurately ripped
4 | (6/6) Accurately ripped
5 | (6/6) Accurately ripped
6 | (6/6) Accurately ripped
7 | (6/6) Accurately ripped
8 | (6/6) Accurately ripped
9 | (6/6) Accurately ripped
10 | (6/6) Accurately ripped
11 | (6/6) Accurately ripped
12 | (6/6) Accurately ripped
13 | (6/6) Accurately ripped
14 | (6/6) Accurately ripped
15 | (6/6) Accurately ripped
[AccurateRip ID: 0029cad5-01dd9e47-cb12b90f] found.
Track [ CRC | V2 ] Status
01 [e48e905b|3dc1dff5] (0+2/2) Accurately ripped
02 [fcbc204e|b65895d3] (0+2/2) Accurately ripped
03 [7febd583|a7e3934e] (0+2/2) Accurately ripped
04 [b9daf86c|7efd17b8] (0+2/2) Accurately ripped
05 [c8503f7c|5867b785] (0+2/2) Accurately ripped
06 [2a2c553f|9a0b2bcb] (0+2/2) Accurately ripped
07 [dced944d|6fce5fcc] (0+2/2) Accurately ripped
08 [95cab700|a55ec24c] (0+2/2) Accurately ripped
09 [e30bcd77|077fc914] (0+2/2) Accurately ripped
10 [7594de8f|585e01e4] (0+2/2) Accurately ripped
11 [a3a12648|aa1485e6] (0+2/2) Accurately ripped
12 [3eebf657|b7f720bb] (0+2/2) Accurately ripped
13 [064a14a2|e2ef55c7] (0+2/2) Accurately ripped
14 [04c6f12f|64849a78] (0+2/2) Accurately ripped
15 [7da893ed|f8bd2037] (0+2/2) Accurately ripped

Track Peak [ CRC32 ] [W/O NULL] [ LOG ]
– 94,8 [70A3F1C8] [5D426A0E] CRC32
01 76,0 [9AB95787] [A3688EC9]
02 94,8 [CB12633E] [112643CA]
03 89,1 [9B1FA0C9] [D9A7FB41]
04 68,7 [96B5A767] [3A3DCA47]
05 84,3 [F534CFFC] [F20DE15F]
06 74,2 [70B42DD4] [B2D25A6A]
07 74,2 [5B09353D] [C08B1BB3]
08 64,4 [25629B46] [CC2144AC]
09 90,6 [8B279FC6] [B7745332]
10 91,6 [8065EC83] [A6B26444]
11 89,1 [F5FAE454] [023AA3D1]
12 93,7 [4F551FB2] [21C34179]
13 88,0 [5E584DC1] [1FCA6135]
14 87,1 [57C44D72] [EA9632B9]
15 75,9 [18BEA0D6] [4FB508FD]

Exact Audio Copy V1.3 from 2. September 2016

EAC extraction logfile from 20. April 2020, 16:07

Gene Krupa / Four Classic Albums - CD2

Used drive : TSSTcorpCDDVDW SH-224FB Adapter: 1 ID: 0

Read mode : Secure
Utilize accurate stream : Yes
Defeat audio cache : Yes
Make use of C2 pointers : No

Read offset correction : 6
Overread into Lead-In and Lead-Out : No
Fill up missing offset samples with silence : Yes
Delete leading and trailing silent blocks : No
Null samples used in CRC calculations : Yes
Used interface : Native Win32 interface for Win NT & 2000

Used output format : User Defined Encoder
Selected bitrate : 128 kBit/s
Quality : High
Add ID3 tag : No
Command line compressor : C:\Program Files (x86)\Exact Audio Copy\Flac\flac.exe
Additional command line options : -V -8 -T "Genre=%genre%" -T "Artist=%artist%" -T "Title=%title%" -T "Album=%albumtitle%" -T "Date=%year%" -T "Tracknumber=%tracknr%" -T "Comment=%comment%" %source%


TOC of the extracted CD

Track | Start | Length | Start sector | End sector
––––––––––––––––––––––––––––-
1 | 0:00.00 | 4:14.41 | 0 | 19090
2 | 4:14.41 | 4:43.12 | 19091 | 40327
3 | 8:57.53 | 2:50.40 | 40328 | 53117
4 | 11:48.18 | 4:47.35 | 53118 | 74677
5 | 16:35.53 | 3:54.14 | 74678 | 92241
6 | 20:29.67 | 4:15.40 | 92242 | 111406
7 | 24:45.32 | 2:42.21 | 111407 | 123577
8 | 27:27.53 | 3:33.73 | 123578 | 139625
9 | 31:01.51 | 2:52.34 | 139626 | 152559
10 | 33:54.10 | 7:16.43 | 152560 | 185302
11 | 41:10.53 | 5:15.07 | 185303 | 208934
12 | 46:25.60 | 6:22.31 | 208935 | 237615
13 | 52:48.16 | 4:17.41 | 237616 | 256931
14 | 57:05.57 | 6:42.06 | 256932 | 287087
15 | 63:47.63 | 2:58.29 | 287088 | 300466
16 | 66:46.17 | 9:13.50 | 300467 | 341991
17 | 75:59.67 | 3:25.30 | 341992 | 357396


Range status and errors

Selected range

Filename D:\ssagwebster\Gene Krupa - Four Classic Albums (2014, 2CD)\CD2\Gene Krupa - Four Classic Albums - CD2.wav

Peak level 92.3 %
Extraction speed 3.5 X
Range quality 100.0 %
Test CRC D8E8A2E6
Copy CRC D8E8A2E6
Copy OK

No errors occurred


AccurateRip summary

Track 1 accurately ripped (confidence 2) [74526ACA] (AR v2)
Track 2 accurately ripped (confidence 2) [BD5956E0] (AR v2)
Track 3 accurately ripped (confidence 2) [1D0A6C5C] (AR v2)
Track 4 accurately ripped (confidence 2) [FB3C3727] (AR v2)
Track 5 accurately ripped (confidence 2) [AD1F3A3E] (AR v2)
Track 6 accurately ripped (confidence 2) [B695CA08] (AR v2)
Track 7 accurately ripped (confidence 2) [04A810DD] (AR v2)
Track 8 accurately ripped (confidence 2) [C79C7D19] (AR v2)
Track 9 accurately ripped (confidence 2) [B8BD1DA5] (AR v2)
Track 10 accurately ripped (confidence 2) [8C463F7C] (AR v2)
Track 11 accurately ripped (confidence 2) [4B1C79D1] (AR v2)
Track 12 accurately ripped (confidence 2) [262C9BAF] (AR v2)
Track 13 accurately ripped (confidence 2) [743B5ED1] (AR v2)
Track 14 accurately ripped (confidence 2) [DADECE34] (AR v2)
Track 15 accurately ripped (confidence 2) [4509ABB8] (AR v2)
Track 16 accurately ripped (confidence 2) [3AA41E55] (AR v2)
Track 17 accurately ripped (confidence 2) [EDE2E067] (AR v2)

All tracks accurately ripped

End of status report

==== Log checksum B84BF870CBC0F36C6C3A25C2A8AEF0176F51DE81B361E38DD3167AFAFEC479DF ====

[CUETools log; Date: 09.06.2020 14:42:11; Version: 2.1.4]
[CTDB TOCID: 0bXEHGLPDoUfaikVdruqJF_FT2E-] found.
Track | CTDB Status
1 | (7/7) Accurately ripped
2 | (7/7) Accurately ripped
3 | (7/7) Accurately ripped
4 | (7/7) Accurately ripped
5 | (7/7) Accurately ripped
6 | (7/7) Accurately ripped
7 | (7/7) Accurately ripped
8 | (7/7) Accurately ripped
9 | (7/7) Accurately ripped
10 | (7/7) Accurately ripped
11 | (7/7) Accurately ripped
12 | (7/7) Accurately ripped
13 | (7/7) Accurately ripped
14 | (7/7) Accurately ripped
15 | (7/7) Accurately ripped
16 | (7/7) Accurately ripped
17 | (7/7) Accurately ripped
[AccurateRip ID: 002d81d6-024a927f-02129d11] found.
Track [ CRC | V2 ] Status
01 [2d3edb6e|74526aca] (0+2/2) Accurately ripped
02 [43173cc2|bd5956e0] (0+2/2) Accurately ripped
03 [2de1f49d|1d0a6c5c] (0+2/2) Accurately ripped
04 [dd3190d6|fb3c3727] (0+2/2) Accurately ripped
05 [f8cd30e1|ad1f3a3e] (0+2/2) Accurately ripped
06 [3056c299|b695ca08] (0+2/2) Accurately ripped
07 [49f123b1|04a810dd] (0+2/2) Accurately ripped
08 [f7eff87b|c79c7d19] (0+2/2) Accurately ripped
09 [9886bc58|b8bd1da5] (0+2/2) Accurately ripped
10 [056103d7|8c463f7c] (0+2/2) Accurately ripped
11 [6ac75102|4b1c79d1] (0+2/2) Accurately ripped
12 [32540fd5|262c9baf] (0+2/2) Accurately ripped
13 [0bfc867d|743b5ed1] (0+2/2) Accurately ripped
14 [ef5445cf|dadece34] (0+2/2) Accurately ripped
15 [6107bf0f|4509abb8] (0+2/2) Accurately ripped
16 [b1e53e6c|3aa41e55] (0+2/2) Accurately ripped
17 [eef05d85|ede2e067] (0+2/2) Accurately ripped

Track Peak [ CRC32 ] [W/O NULL] [ LOG ]
– 92,3 [D8E8A2E6] [0746FEDC] CRC32
01 76,2 [B555F74D] [B5039B0A]
02 54,3 [772E89EC] [E233B8E4]
03 67,5 [7101677B] [BF364082]
04 79,0 [1AE07D6F] [2C310359]
05 67,0 [C5AA6D4D] [8E88CAC6]
06 43,7 [8052721B] [CD82202F]
07 72,6 [2BA4FECA] [4B4B8834]
08 64,3 [49F3FBD8] [FC2FC88D]
09 72,3 [9A606D1D] [924924F3]
10 72,5 [E74A1A86] [19D41F48]
11 87,5 [EE16CEFD] [2427BF61]
12 90,4 [D98F4AD1] [E0D56B74]
13 92,3 [EEE632F4] [1CCE807F]
14 78,3 [EE9E3711] [78815F85]
15 89,1 [202493A5] [986AE8DF]
16 89,1 [50070915] [32761694]
17 89,1 [3719FF4E] [65B11B19]

Thanks to ssagwebster

See also:
Gene Krupa And His Orchestra - 1940 Vol. 3 (1996)