Subcategories

Gene Krupa and His Orchestra - 1938 (1994)

Posted By: gribovar
Gene Krupa and His Orchestra - 1938 (1994)

Gene Krupa and His Orchestra - 1938 (1994)
EAC Rip | FLAC (image+.cue+log) - 213 MB | MP3 CBR 320 kbps (LAME 3.93) - 146 MB | Covers - 12 MB
Genre: Jazz, Big Band, Swing | RAR 3% Rec. | Label: Classics Records (CLASSICS 767)

The second Gene Krupa CD in Classics complete reissuance of his swing-era recordings has 22 titles from Krupa's Orchestra during the latter half of 1938. The big band did not yet have its own personality, but Irene Day was a fine pop/swing vocalist; Leo Watson is in typically eccentric form singing four goodtime numbers; the arrangements of Jimmy Mundy and Chappie Willett generally swing hard; Vido Musso and Sam Donahue get off some fine tenor solos; and the leader/drummer really drives the band. Well worth picking up by swing fans.
Tracklist:
01. Rhythm Jam
02. Nagasaki
03. Any Time At All
04. Tutti Frutti
05. Tell Me With Your Kisses
06. Bye Bye Blues
07. After Looking At You
08. Love Doesn't Grow On Trees
09. Walkin' And Swingin'
10. Since My Best Gal Turned Me Down
11. Wait Until My Heart Finds Out
12. Jeepers Creepers
13. Say It With A Kiss
14. Lightly And Politely
15. Bolero At The Savoy
16. Murdy Purdy
17. Ta-Ra-Ra-Boom-Der-E
18. I Won't Believe It
19. Never Felt Better, Never Had Less
20. An Old Curiosity Shop
21. Apurksody
22. Do You Wanna Jump, Children?

Total time:

Exact Audio Copy V1.0 beta 1 from 15. November 2010

EAC extraction logfile from 11. July 2011, 12:20

Gene Krupa and His Orchestra / 1938 - (Chronological Classics)

Used drive : HL-DT-STDVDRAM GH22NS40 Adapter: 5 ID: 0

Read mode : Secure
Utilize accurate stream : Yes
Defeat audio cache : Yes
Make use of C2 pointers : No

Read offset correction : 667
Overread into Lead-In and Lead-Out : No
Fill up missing offset samples with silence : Yes
Delete leading and trailing silent blocks : No
Null samples used in CRC calculations : Yes
Used interface : Native Win32 interface for Win NT & 2000

Used output format : User Defined Encoder
Selected bitrate : 1024 kBit/s
Quality : High
Add ID3 tag : No
Command line compressor : C:\Program Files (x86)\Exact Audio Copy\FLAC\FLAC.EXE
Additional command line options : -6 -V -T "ARTIST=%a" -T "TITLE=%t" -T "ALBUM=%g" -T "DATE=%y" -T "TRACKNUMBER=%n" -T "GENRE=%m" -T "COMMENT=%e" %j–picture="%i"%j %s -o %d


TOC of the extracted CD

Track | Start | Length | Start sector | End sector
––––––––––––––––––––––––––––-
1 | 0:00.32 | 2:50.20 | 32 | 12801
2 | 2:50.52 | 2:27.13 | 12802 | 23839
3 | 5:17.65 | 3:05.25 | 23840 | 37739
4 | 8:23.15 | 2:26.47 | 37740 | 48736
5 | 10:49.62 | 2:47.35 | 48737 | 61296
6 | 13:37.22 | 2:48.35 | 61297 | 73931
7 | 16:25.57 | 2:42.63 | 73932 | 86144
8 | 19:08.45 | 2:50.12 | 86145 | 98906
9 | 21:58.57 | 2:33.03 | 98907 | 110384
10 | 24:31.60 | 2:49.27 | 110385 | 123086
11 | 27:21.12 | 2:45.28 | 123087 | 135489
12 | 30:06.40 | 3:02.52 | 135490 | 149191
13 | 33:09.17 | 3:00.70 | 149192 | 162761
14 | 36:10.12 | 2:39.45 | 162762 | 174731
15 | 38:49.57 | 2:44.25 | 174732 | 187056
16 | 41:34.07 | 3:05.40 | 187057 | 200971
17 | 44:39.47 | 3:07.45 | 200972 | 215041
18 | 47:47.17 | 3:08.63 | 215042 | 229204
19 | 50:56.05 | 2:47.12 | 229205 | 241741
20 | 53:43.17 | 3:00.35 | 241742 | 255276
21 | 56:43.52 | 2:56.28 | 255277 | 268504
22 | 59:40.05 | 2:31.17 | 268505 | 279846


Range status and errors

Selected range

Filename T:\Gene Krupa and His Orchestra - 1938\Gene Krupa and His Orchestra - 1938 - (Chronological Classics).wav

Peak level 93.5 %
Extraction speed 0.0 X
Range quality 100.0 %
Test CRC 6E4C7488
Copy CRC 6E4C7488
Copy OK

No errors occurred


AccurateRip summary

Track 1 accurately ripped (confidence 2) [028A617A]
Track 2 accurately ripped (confidence 2) [50B892C7]
Track 3 accurately ripped (confidence 2) [29C8764B]
Track 4 accurately ripped (confidence 2) [EC06EA0F]
Track 5 accurately ripped (confidence 2) [BC1B8B42]
Track 6 accurately ripped (confidence 2) [5D5AC7D8]
Track 7 accurately ripped (confidence 2) [448EE6F0]
Track 8 accurately ripped (confidence 2) [23F4EE32]
Track 9 accurately ripped (confidence 2) [E392DB12]
Track 10 accurately ripped (confidence 2) [77AEDD37]
Track 11 accurately ripped (confidence 2) [D6BF14F2]
Track 12 accurately ripped (confidence 2) [F22C1377]
Track 13 accurately ripped (confidence 2) [BF6AA239]
Track 14 accurately ripped (confidence 2) [C2E6EAD7]
Track 15 accurately ripped (confidence 2) [C0B517D7]
Track 16 accurately ripped (confidence 2) [38ED0EBF]
Track 17 accurately ripped (confidence 2) [9E97ABC0]
Track 18 accurately ripped (confidence 2) [1D05E542]
Track 19 accurately ripped (confidence 2) [923510F7]
Track 20 accurately ripped (confidence 2) [2CFE1106]
Track 21 accurately ripped (confidence 2) [82234CCF]
Track 22 accurately ripped (confidence 2) [6974BBAC]

All tracks accurately ripped

End of status report

==== Log checksum B1491F6CE103175D05C61DD914CC87E2CCC5F9FC04FB8B4154B55FD81B95DC4E ====

[CUETools log; Date: 24.09.2020 12:24:15; Version: 2.1.4]
Pregap length 00:00:32.
[CTDB TOCID: VGUP9d3Z9TuLIXQBLht3kI9oNKI-] found.
Track | CTDB Status
1 | (1/1) Accurately ripped
2 | (1/1) Accurately ripped
3 | (1/1) Accurately ripped
4 | (1/1) Accurately ripped
5 | (1/1) Accurately ripped
6 | (1/1) Accurately ripped
7 | (1/1) Accurately ripped
8 | (1/1) Accurately ripped
9 | (1/1) Accurately ripped
10 | (1/1) Accurately ripped
11 | (1/1) Accurately ripped
12 | (1/1) Accurately ripped
13 | (1/1) Accurately ripped
14 | (1/1) Accurately ripped
15 | (1/1) Accurately ripped
16 | (1/1) Accurately ripped
17 | (1/1) Accurately ripped
18 | (1/1) Accurately ripped
19 | (1/1) Accurately ripped
20 | (1/1) Accurately ripped
21 | (1/1) Accurately ripped
22 | (1/1) Accurately ripped
[AccurateRip ID: 00307917-030b041c-370e9316] found.
Track [ CRC | V2 ] Status
01 [028a617a|149b5faa] (0+4/4) Accurately ripped
02 [50b892c7|fdfa9357] (0+4/4) Accurately ripped
03 [29c8764b|cb9febec] (0+4/4) Accurately ripped
04 [ec06ea0f|78dd1444] (0+4/4) Accurately ripped
05 [bc1b8b42|3ba064b7] (0+4/4) Accurately ripped
06 [5d5ac7d8|384d983b] (0+4/4) Accurately ripped
07 [448ee6f0|cc561ae6] (0+4/4) Accurately ripped
08 [23f4ee32|d9810535] (0+4/4) Accurately ripped
09 [e392db12|f502a15c] (0+4/4) Accurately ripped
10 [77aedd37|32f20012] (0+4/4) Accurately ripped
11 [d6bf14f2|d023ca1c] (0+4/4) Accurately ripped
12 [f22c1377|ba1c79b4] (0+4/4) Accurately ripped
13 [bf6aa239|78328127] (0+4/4) Accurately ripped
14 [c2e6ead7|7bc1bd68] (0+4/4) Accurately ripped
15 [c0b517d7|b1f8a7cf] (0+4/4) Accurately ripped
16 [38ed0ebf|a362b645] (0+4/4) Accurately ripped
17 [9e97abc0|aedff7b2] (0+4/4) Accurately ripped
18 [1d05e542|f7e8197d] (0+4/4) Accurately ripped
19 [923510f7|6e4819a2] (0+4/4) Accurately ripped
20 [2cfe1106|f1f23509] (0+4/4) Accurately ripped
21 [82234ccf|6d66ed24] (0+4/4) Accurately ripped
22 [6974bbac|1c667629] (0+4/4) Accurately ripped

Track Peak [ CRC32 ] [W/O NULL] [ LOG ]
– 93,5 [6E4C7488] [9577B19E] CRC32
01 90,4 [615BF136] [2D8AED53]
02 68,0 [3DBAE331] [5C791D83]
03 75,4 [42D07142] [79314C94]
04 66,7 [B39A02C7] [F8F9BB43]
05 50,9 [F9CD4982] [1BDDD5DB]
06 54,5 [C86A7EA2] [4B51F012]
07 49,6 [A465605B] [7A694EBC]
08 58,3 [F443B186] [A89D5501]
09 73,4 [F5032619] [77C78CAE]
10 78,1 [670F1AE5] [D40C637C]
11 72,1 [DD28CEF3] [2EF3615E]
12 79,6 [2A1D5BA9] [E28DDEDA]
13 53,3 [4CBD18BD] [FE15CC40]
14 76,9 [8F9AD110] [2FDF116B]
15 66,5 [9B4B43EE] [3EC6361B]
16 71,4 [F0031929] [6F29CC16]
17 93,5 [101489CE] [6A9DA4E9]
18 58,3 [D28901EA] [60F663FF]
19 64,8 [FC5417CD] [4A056B81]
20 62,2 [23E77540] [7DAB518E]
21 87,9 [FD6786E3] [DB657A3D]
22 85,5 [CA67DEAE] [EEAF9859]

Thanks to PСWhizzkid

See also:
Gene Krupa - Four Classic Albums (1954-1957) [Reissue 2014]
Gene Krupa and His Orchestra - 1935-1938 (1994)
Gene Krupa And His Orchestra - 1940 Vol. 3 (1996)