Subcategories
Tags
Language
Tags

Gene Krupa and His Orchestra - 1939 (1994)

Posted By: gribovar
Gene Krupa and His Orchestra - 1939 (1994)

Gene Krupa and His Orchestra - 1939 (1994)
EAC Rip | APE (image+.cue+log) - 212 MB | MP3 CBR 320 kbps (LAME 3.93) - 154 MB | Covers (7 MB) included
Genre: Jazz, Big Band, Swing | RAR 3% Rec. | Label: Classics Records (CLASSICS 799)

The European label's third Gene Krupa set reissues all of the recordings made by the drummer's big band during a five-month period in 1939. Although working steadily, Krupa's Orchestra had not broken through yet (it was still two years away from its prime period). With Irene Daye contributing ten pleasing vocals among the 22 selections and such soloists as trumpeter Nate Kazebier, trombonist Floyd O'Brien, tenor-saxophonist Sam Donahue and pianist Milt Raskin (along with the drummer/leader), the group was starting to show some strong potential, particularly on the instrumentals such as "The Madam Swings It" and "Hodge Podge." Well-played if not overly distinctive swing music.
Tracklist:
01. The Lady's In Love With You
02. Some Like It Hot
03. Quiet And Roll 'Em
04. The Madam Swings It
05. Dracula
06. My Hands Are Tied
07. Variety Is The Spice Of Life
08. Foo For Two
09. Hodge Podge
10. Swanee River
11. Challenger Chop
12. Jeanie With The Light Brown Hair
13. Don't Be Surprised
14. You Taught Me To Love Again
15. Down By The Old Mill Stream
16. Jungle Madness
17. Guess I'll Go Back Home (This Summer)
18. You And Your Love
19. Moonlight Serenade
20. Old Black Joe
21. Whisper While We Dance
22. Sweetheart, Honey, Darlin', Dear

Total time: 01:02:20

EAC extraction logfile from 19. May 2007, 16:45 for CD
Gene Krupa / Gene Krupa and his Orchestra 1939 The Chronogical Classics 799

Used drive : LITE-ON CD-ROM LTN-527T Adapter: 1 ID: 1
Read mode : Secure with NO C2, accurate stream, disable cache
Read offset correction : 12
Overread into Lead-In and Lead-Out : No

Used output format : C:\Program Files\Monkey's Audio\MAC.exe (Monkey's Audio Lossless Encoder)
High Lossless Compression

Other options :
Fill up missing offset samples with silence : Yes
Delete leading and trailing silent blocks : No
Installed external ASPI interface


Range status and errors
Selected range
Filename F:\Win-Rar\Gene Krupa - Classics 1939 [APE Full Scans]\Gene Krupa - Gene Krupa and his Orchestra 1939 The Chronogical Classics 799.wav.wav

Peak level 97.7 %
Range quality 100.0 %
CRC C6B0A5B9
Copy OK

No errors occured

End of status report

[CUETools log; Date: 26.09.2020 12:13:17; Version: 2.1.4]
Pregap length 00:00:32.
[CTDB TOCID: AwXh61jcsPTfcJ8bC7cOQpK9p6A-] found.
Track | CTDB Status
1 | (2/2) Accurately ripped
2 | (2/2) Accurately ripped
3 | (2/2) Accurately ripped
4 | (2/2) Accurately ripped
5 | (2/2) Accurately ripped
6 | (2/2) Accurately ripped
7 | (2/2) Accurately ripped
8 | (2/2) Accurately ripped
9 | (2/2) Accurately ripped
10 | (2/2) Accurately ripped
11 | (2/2) Accurately ripped
12 | (2/2) Accurately ripped
13 | (2/2) Accurately ripped
14 | (2/2) Accurately ripped
15 | (2/2) Accurately ripped
16 | (2/2) Accurately ripped
17 | (2/2) Accurately ripped
18 | (2/2) Accurately ripped
19 | (2/2) Accurately ripped
20 | (2/2) Accurately ripped
21 | (2/2) Accurately ripped
22 | (2/2) Accurately ripped
[AccurateRip ID: 003153bf-03165355-130e9c16] found.
Track [ CRC | V2 ] Status
01 [f6e87085|2cd0357e] (2+4/6) Accurately ripped
02 [c94aed06|d70a7742] (2+4/6) Accurately ripped
03 [5a001470|45d4c46f] (2+4/6) Accurately ripped
04 [932fc463|b940d186] (2+4/6) Accurately ripped
05 [da9ad4f4|214f0d44] (2+4/6) Accurately ripped
06 [4ee623f0|942d5080] (2+4/6) Accurately ripped
07 [6794e9af|2980ae1f] (2+4/6) Accurately ripped
08 [03880915|88ffcdaf] (2+4/6) Accurately ripped
09 [546e37bd|58a85718] (2+4/6) Accurately ripped
10 [b709b8f1|98106949] (2+4/6) Accurately ripped
11 [a79a0e7e|68f1f6c1] (2+4/6) Accurately ripped
12 [17c41685|bebdcd76] (2+4/6) Accurately ripped
13 [85abb6a0|fa77b657] (2+4/6) Accurately ripped
14 [199d112f|4c91a19a] (2+4/6) Accurately ripped
15 [42b6713f|099cc4c3] (2+4/6) Accurately ripped
16 [faa85c95|f21fcc7c] (2+4/6) Accurately ripped
17 [3330ca38|a461a72a] (2+4/6) Accurately ripped
18 [68a8ca42|8be22eca] (2+4/6) Accurately ripped
19 [dd9f25b6|82f6aaa1] (2+4/6) Accurately ripped
20 [19040a90|6a8b999f] (2+4/6) Accurately ripped
21 [8b6f2dd9|c2154eeb] (2+4/6) Accurately ripped
22 [6db0d447|7366f571] (2+4/6) Accurately ripped

Track Peak [ CRC32 ] [W/O NULL] [ LOG ]
– 97,7 [C6B0A5B9] [15D0E305] CRC32
01 81,1 [C1DFE42D] [F350153F]
02 74,8 [FD946445] [B623A358]
03 90,0 [CD6D0A4B] [5CCEED93]
04 85,9 [C6C4A5C0] [A16E4047]
05 79,7 [AF7344AB] [2F3892BD]
06 80,5 [2C9D7E36] [39B51513]
07 84,1 [AE056097] [C4ABB4B3]
08 84,5 [0C4E78D8] [99BEBCF6]
09 74,7 [5ADA8524] [DE591163]
10 81,9 [0F181697] [3890CE52]
11 82,1 [B6B89B4B] [A9B98483]
12 91,0 [4A8B03C1] [67E01D99]
13 73,4 [DA0F88DD] [1CA9B750]
14 86,6 [D6E1444E] [82E0639D]
15 83,6 [CE6E3C15] [DD4FBBA3]
16 87,4 [59F7CBC6] [524D3B98]
17 97,7 [3334DF76] [BE207E29]
18 77,3 [37CE24FC] [09E5F884]
19 92,2 [29AA06D4] [34B6D51D]
20 83,4 [1704ECBF] [5670C585]
21 91,4 [BB58D394] [4447FFA1]
22 88,3 [08C17D40] [CB6DC59B]

Thanks to Mazeppa

See also:
Gene Krupa - Four Classic Albums (1954-1957) [Reissue 2014]
Gene Krupa and His Orchestra - 1935-1938 (1994)
Gene Krupa and His Orchestra - 1938 (1994)
Gene Krupa And His Orchestra - 1940 Vol. 3 (1996)