Subcategories

Geoff Tate: Discography (2002-2013)

Posted By: v3122
Geoff Tate: Discography (2002-2013)

Geoff Tate: Discography (2002-2013)
EAC | Flac(Image) + Cue + Log & MP3 CBR 320Kbps
3CD | Label: Various | ~ 1153 or 392 Mb | Artwork(jpg) -> 99 Mb
Heavy Metal / Progressive Metal

Geoff Tate (born Jeffrey Wayne Tate,[1] January 14, 1959; he later changed his first name to Geoffery or Geoffrey) is an American singer and musician. He rose to fame with the progressive metal band Queensrÿche, who had commercial success with their 1988 album Operation: Mindcrime and 1990 album Empire. Tate is ranked fourteenth on Hit Parader's list of the 100 Greatest Metal Vocalists of All Time. He was voted No. 2 on That Metal Show's top 5 hard rock vocalists the 1980s. In 2012, he won the Vegas Rocks! Magazine Music Award for "Voice in Progressive Heavy Metal". In 2015, he placed ninth on OC Weekly's list of the 10 Best High-Pitched Metal Singers. After his farewell tour as Queensrÿche, he renamed his band Operation: Mindcrime, after the Queensrÿche album of the same name…

~ wiki
Geoff Tate: Discography (2002-2013)

Geoff Tate: Discography (2002-2013):

Geoff Tate: Discography (2002-2013)

Tracklist CD1 - 2002 - Geoff Tate (Mayan Records, MYNCD009, U.K.):

1. Flood
2. Forever
3. Helpless
4. Touch
5. Every Move We Make
6. This Moment
7. In Other Words
8. A Passenger
9. Off The TV
10. Grain Of Faith
11. Over Me

Exact Audio Copy V1.1 from 23. June 2015

EAC extraction logfile from 15. March 2016, 21:10

Geoff Tate / Geoff Tate

Used drive : ASUS DRW-24B1ST Adapter: 1 ID: 1

Read mode : Secure
Utilize accurate stream : Yes
Defeat audio cache : Yes
Make use of C2 pointers : No

Read offset correction : 6
Overread into Lead-In and Lead-Out : No
Fill up missing offset samples with silence : Yes
Delete leading and trailing silent blocks : No
Null samples used in CRC calculations : Yes
Used interface : Native Win32 interface for Win NT & 2000

Used output format : User Defined Encoder
Selected bitrate : 1024 kBit/s
Quality : High
Add ID3 tag : No
Command line compressor : C:\Program Files (x86)\Exact Audio Copy\Flac\flac.exe
Additional command line options : -V -8 -T "Date=%year%" -T "Genre=%genre%" %source%


TOC of the extracted CD

Track | Start | Length | Start sector | End sector
––––––––––––––––––––––––––––-
1 | 0:00.00 | 5:24.50 | 0 | 24349
2 | 5:24.50 | 4:14.57 | 24350 | 43456
3 | 9:39.32 | 4:50.48 | 43457 | 65254
4 | 14:30.05 | 4:07.50 | 65255 | 83829
5 | 18:37.55 | 4:24.40 | 83830 | 103669
6 | 23:02.20 | 4:50.30 | 103670 | 125449
7 | 27:52.50 | 4:52.32 | 125450 | 147381
8 | 32:45.07 | 4:49.28 | 147382 | 169084
9 | 37:34.35 | 4:00.00 | 169085 | 187084
10 | 41:34.35 | 3:35.52 | 187085 | 203261
11 | 45:10.12 | 4:41.28 | 203262 | 224364


Range status and errors

Selected range

Filename E:\Torrent\Queensryche\Geoff Tate - Geoff Tate (2002) (Mayan Records, MYNCD009, England)\Geoff Tate - Geoff Tate.wav

Peak level 100.0 %
Extraction speed 5.4 X
Range quality 100.0 %
Test CRC 189BF62D
Copy CRC 189BF62D
Copy OK

No errors occurred


AccurateRip summary

Track 1 accurately ripped (confidence 14) [E46D57E0] (AR v2)
Track 2 accurately ripped (confidence 14) [29AC1EAF] (AR v2)
Track 3 accurately ripped (confidence 14) [946D217A] (AR v2)
Track 4 accurately ripped (confidence 14) [FE61C1C8] (AR v2)
Track 5 accurately ripped (confidence 14) [26F27F56] (AR v2)
Track 6 accurately ripped (confidence 14) [AEFC9834] (AR v2)
Track 7 accurately ripped (confidence 14) [7751A3D3] (AR v2)
Track 8 accurately ripped (confidence 14) [036163C2] (AR v2)
Track 9 accurately ripped (confidence 14) [159044A9] (AR v2)
Track 10 accurately ripped (confidence 14) [F72064A5] (AR v2)
Track 11 accurately ripped (confidence 14) [25ED17C6] (AR v2)

All tracks accurately ripped

End of status report

–– CUETools DB Plugin V2.1.6

[CTDB TOCID: rv.F2mA1n59LlOOIu6nLHSLDrcs-] found
Submit result: rv.F2mA1n59LlOOIu6nLHSLDrcs- has been confirmed
Track | CTDB Status
1 | (29/29) Accurately ripped
2 | (29/29) Accurately ripped
3 | (29/29) Accurately ripped
4 | (29/29) Accurately ripped
5 | (29/29) Accurately ripped
6 | (29/29) Accurately ripped
7 | (29/29) Accurately ripped
8 | (29/29) Accurately ripped
9 | (29/29) Accurately ripped
10 | (29/29) Accurately ripped
11 | (29/29) Accurately ripped


==== Log checksum 0A3AFBA871EA7BDE422AC50819D2BB8555216B9ED9916B23AD6C3522BD4DD535 ====


[CUETools log; Date: 29.04.2019 5:34:50; Version: 2.1.4]
[CTDB TOCID: rv.F2mA1n59LlOOIu6nLHSLDrcs-] found.
Track | CTDB Status
1 | (57/58) Accurately ripped
2 | (58/58) Accurately ripped
3 | (58/58) Accurately ripped
4 | (58/58) Accurately ripped
5 | (57/58) Accurately ripped
6 | (57/58) Accurately ripped
7 | (57/58) Accurately ripped
8 | (57/58) Accurately ripped
9 | (57/58) Accurately ripped
10 | (57/58) Accurately ripped
11 | (56/58) Accurately ripped
[AccurateRip ID: 001503a7-00b4f591-a10baf0b] found.
Track [ CRC | V2 ] Status
01 [513eef76|e46d57e0] (19+18/68) Accurately ripped
02 [644d8325|29ac1eaf] (19+18/70) Accurately ripped
03 [c8513da6|946d217a] (19+18/70) Accurately ripped
04 [31b19633|fe61c1c8] (19+18/70) Accurately ripped
05 [33497ab5|26f27f56] (19+18/70) Accurately ripped
06 [afcd202e|aefc9834] (19+18/69) Accurately ripped
07 [37c46871|7751a3d3] (19+18/69) Accurately ripped
08 [b4327bfa|036163c2] (19+18/69) Accurately ripped
09 [ac70c62e|159044a9] (19+18/69) Accurately ripped
10 [83d50581|f72064a5] (19+18/69) Accurately ripped
11 [52f09deb|25ed17c6] (17+18/69) Accurately ripped
Offsetted by 646:
01 [31bc24a1] (12/68) Accurately ripped
02 [8238ea7a] (12/70) Accurately ripped
03 [3f8d5452] (12/70) Accurately ripped
04 [6f9d2621] (12/70) Accurately ripped
05 [ab90c328] (12/70) Accurately ripped
06 [51729323] (12/69) Accurately ripped
07 [6742e46d] (12/69) Accurately ripped
08 [77a9c0b8] (12/69) Accurately ripped
09 [be8614ee] (12/69) Accurately ripped
10 [96de5889] (12/69) Accurately ripped
11 [2413e6d9] (10/69) Accurately ripped
Offsetted by -18:
01 [c5688765] (00/68) No match (V2 was not tested)
02 [c086ed4e] (02/70) Accurately ripped
03 [6d0510a2] (02/70) Accurately ripped
04 [9d0d83a7] (02/70) Accurately ripped
05 [86b0e37c] (02/70) Accurately ripped
06 [70154588] (02/69) Accurately ripped
07 [a0a8a996] (02/69) Accurately ripped
08 [4690ff2d] (02/69) Accurately ripped
09 [ca912197] (02/69) Accurately ripped
10 [478b8ae8] (02/69) Accurately ripped
11 [e0108ef4] (02/69) Accurately ripped
Offsetted by 560:
01 [5287827a] (00/68) No match (V2 was not tested)
02 [eb993df1] (00/70) No match (V2 was not tested)
03 [3604ef06] (00/70) No match (V2 was not tested)
04 [ddf06b6b] (00/70) No match (V2 was not tested)
05 [af239ad7] (00/70) No match (V2 was not tested)
06 [f934d97b] (00/69) No match (V2 was not tested)
07 [29c6a1f2] (00/69) No match (V2 was not tested)
08 [3ef55225] (00/69) No match (V2 was not tested)
09 [50c4952f] (00/69) No match (V2 was not tested)
10 [2c8be4bd] (00/69) No match (V2 was not tested)
11 [01699f0f] (00/69) No match (V2 was not tested)

Track Peak [ CRC32 ] [W/O NULL] [ LOG ]
– 100,0 [189BF62D] [2BECC899] CRC32
01 100,0 [455D541F] [D7961708]
02 99,9 [A93C3624] [9BBB8AC5]
03 99,9 [CDB5090E] [0DE6566E]
04 99,9 [3100B60E] [AD661821]
05 99,9 [1B9C8B11] [C7757A81]
06 99,9 [373ACE35] [F60AC016]
07 99,9 [8E2E85D7] [64ED8CB6]
08 99,9 [85247FF4] [53AC1DA8]
09 100,0 [69FCA124] [60B39FC8]
10 100,0 [A452C3F5] [7D60B275]
11 100,0 [B1798431] [5167CA39]


Geoff Tate: Discography (2002-2013)

Tracklist CD2 - 2012 - Kings & Thieves (InsideOut Music, 0506162, E.U.):

1. She Slipped Away
2. Take A Bullet
3. In The Dirt
4. Say U Luv It
5. The Way I Roll
6. Tomorrow
7. Evil
8. Dark Money
9. These Glory Days
10. Change
11. Waiting

Exact Audio Copy V1.3 from 2. September 2016

EAC extraction logfile from 29. April 2019, 0:05

Geoff Tate / Kings & Thieves (0506162)

Used drive : ASUS DRW-24B1ST Adapter: 1 ID: 1

Read mode : Secure
Utilize accurate stream : Yes
Defeat audio cache : Yes
Make use of C2 pointers : No

Read offset correction : 6
Overread into Lead-In and Lead-Out : No
Fill up missing offset samples with silence : Yes
Delete leading and trailing silent blocks : No
Null samples used in CRC calculations : Yes
Used interface : Native Win32 interface for Win NT & 2000

Used output format : User Defined Encoder
Selected bitrate : 1024 kBit/s
Quality : High
Add ID3 tag : No
Command line compressor : E:\Install\All for Music\Lossless\FLAC_1.3.2\flac-1.3.2-git-20170314-x64-icl\flac.exe
Additional command line options : -V -8 -T "Genre=%genre%" -T "Artist=%artist%" -T "Title=%title%" -T "Album=%albumtitle%" -T "Date=%year%" -T "Tracknumber=%tracknr%" -T "Comment=%comment%" %source%


TOC of the extracted CD

Track | Start | Length | Start sector | End sector
––––––––––––––––––––––––––––-
1 | 0:00.00 | 3:37.02 | 0 | 16276
2 | 3:37.02 | 3:47.09 | 16277 | 33310
3 | 7:24.11 | 4:50.14 | 33311 | 55074
4 | 12:14.25 | 4:05.70 | 55075 | 73519
5 | 16:20.20 | 4:46.67 | 73520 | 95036
6 | 21:07.12 | 6:11.45 | 95037 | 122906
7 | 27:18.57 | 3:51.15 | 122907 | 140246
8 | 31:09.72 | 4:25.25 | 140247 | 160146
9 | 35:35.22 | 4:54.22 | 160147 | 182218
10 | 40:29.44 | 6:08.17 | 182219 | 209835
11 | 46:37.61 | 5:29.51 | 209836 | 234561


Range status and errors

Selected range

Filename E:\Ginger Devil\2012 - Kings & Thieves (InsideOut Music, 0506162, E.U.)\Geoff Tate - Kings & Thieves (0506162).wav

Peak level 100.0 %
Extraction speed 4.2 X
Range quality 100.0 %
Test CRC B508F945
Copy CRC B508F945
Copy OK

No errors occurred


AccurateRip summary

Track 1 accurately ripped (confidence 13) [CE919CD6] (AR v2)
Track 2 accurately ripped (confidence 13) [D9696A8F] (AR v2)
Track 3 accurately ripped (confidence 13) [682EDBA7] (AR v2)
Track 4 accurately ripped (confidence 13) [F513A89B] (AR v2)
Track 5 accurately ripped (confidence 13) [2BB9A84E] (AR v2)
Track 6 accurately ripped (confidence 13) [18D454A5] (AR v2)
Track 7 accurately ripped (confidence 13) [7D94562D] (AR v2)
Track 8 accurately ripped (confidence 13) [D1CFFD7A] (AR v2)
Track 9 accurately ripped (confidence 13) [DED59ADF] (AR v2)
Track 10 accurately ripped (confidence 13) [52343531] (AR v2)
Track 11 accurately ripped (confidence 13) [88E447CF] (AR v2)

All tracks accurately ripped

End of status report

–– CUETools DB Plugin V2.1.6

[CTDB TOCID: 5G6ofphY4stvh5pKR7dHOyJM_cg-] found
Submit result: 5G6ofphY4stvh5pKR7dHOyJM_cg- has been confirmed
Track | CTDB Status
1 | (16/16) Accurately ripped
2 | (16/16) Accurately ripped
3 | (16/16) Accurately ripped
4 | (16/16) Accurately ripped
5 | (16/16) Accurately ripped
6 | (16/16) Accurately ripped
7 | (16/16) Accurately ripped
8 | (16/16) Accurately ripped
9 | (16/16) Accurately ripped
10 | (16/16) Accurately ripped
11 | (16/16) Accurately ripped


==== Log checksum 133B062931D2514CBD48B2AEC626F41B3AD40EF280C114A32882E184435D3C5D ====


[CUETools log; Date: 29.04.2019 5:35:02; Version: 2.1.4]
[CTDB TOCID: 5G6ofphY4stvh5pKR7dHOyJM_cg-] found.
Track | CTDB Status
1 | (17/17) Accurately ripped
2 | (17/17) Accurately ripped
3 | (17/17) Accurately ripped
4 | (17/17) Accurately ripped
5 | (17/17) Accurately ripped
6 | (17/17) Accurately ripped
7 | (17/17) Accurately ripped
8 | (17/17) Accurately ripped
9 | (17/17) Accurately ripped
10 | (17/17) Accurately ripped
11 | (17/17) Accurately ripped
[AccurateRip ID: 00143082-00b1e87c-9f0c370b] found.
Track [ CRC | V2 ] Status
01 [170a30f3|ce919cd6] (00+13/23) Accurately ripped
02 [f3193fe1|d9696a8f] (00+13/23) Accurately ripped
03 [35b6e06c|682edba7] (00+13/23) Accurately ripped
04 [8240c96e|f513a89b] (00+13/23) Accurately ripped
05 [c43c2e76|2bb9a84e] (00+13/23) Accurately ripped
06 [ef949379|18d454a5] (00+13/23) Accurately ripped
07 [3cbc4fd1|7d94562d] (00+13/23) Accurately ripped
08 [66bfe55a|d1cffd7a] (00+13/23) Accurately ripped
09 [c0da97da|ded59adf] (00+13/23) Accurately ripped
10 [a9b326ab|52343531] (00+13/23) Accurately ripped
11 [8dc0b953|88e447cf] (00+13/23) Accurately ripped
Offsetted by 6:
01 [a1e51446] (00/23) No match (V2 was not tested)
02 [a2d38895] (00/23) No match (V2 was not tested)
03 [e03ca90a] (00/23) No match (V2 was not tested)
04 [151b19a8] (00/23) No match (V2 was not tested)
05 [4c525364] (00/23) No match (V2 was not tested)
06 [22875116] (00/23) No match (V2 was not tested)
07 [573531a2] (00/23) No match (V2 was not tested)
08 [131f0527] (00/23) No match (V2 was not tested)
09 [fb7567f1] (00/23) No match (V2 was not tested)
10 [39d45b33] (00/23) No match (V2 was not tested)
11 [aa87d028] (00/23) No match (V2 was not tested)
Offsetted by 12:
01 [30610c10] (00/23) No match (V2 was not tested)
02 [d0e0fc4c] (00/23) No match (V2 was not tested)
03 [5a4f71a5] (00/23) No match (V2 was not tested)
04 [2ab7e7c6] (00/23) No match (V2 was not tested)
05 [b6704ebc] (00/23) No match (V2 was not tested)
06 [1fc92a84] (00/23) No match (V2 was not tested)
07 [99521372] (00/23) No match (V2 was not tested)
08 [c036b0bf] (00/23) No match (V2 was not tested)
09 [5888380f] (00/23) No match (V2 was not tested)
10 [b405fe1d] (00/23) No match (V2 was not tested)
11 [fbf88118] (00/23) No match (V2 was not tested)

Track Peak [ CRC32 ] [W/O NULL] [ LOG ]
– 100,0 [B508F945] [D3C8175C] CRC32
01 100,0 [DA7ADE30] [9DBDD84B]
02 100,0 [2468CB3B] [F17158C8]
03 100,0 [6516E1EF] [CE32D05B]
04 100,0 [CD06FAFB] [F8864064]
05 100,0 [7EBF3FE6] [6B7E14DA]
06 100,0 [A7BCD0C3] [1479F7A5]
07 100,0 [0DCF4BFE] [A7BE6CD7]
08 100,0 [B69F6678] [222CE8DA]
09 100,0 [80B464E0] [9C097312]
10 99,9 [44FEEECC] [096A19A1]
11 100,0 [2FB6D9AC] [BCD2E4CB]


Geoff Tate: Discography (2002-2013)

Tracklist CD3 - 2013 - Queensrÿche: Frequency Unknown (Deadline Music, CLP 0275, U.S.A.):

1. Cold
2. Dare
3. Give It To You
4. Slave
5. In The Hands Of God
6. Running Backwards
7. Life Without You
8. Everything
9. Fallen
10. The Weight Of The World
11. I Don't Believe In Love (Newly recorded) (Bonus track)
12. Empire (Newly recorded) (Bonus track)
13. Jet City Woman (Newly recorded) (Bonus track)
14. Silent Lucidity (Newly recorded) (Bonus track)

Exact Audio Copy V1.1 from 23. June 2015

EAC extraction logfile from 16. March 2016, 19:35

Queensryche & Geoff Tate / Frequency Unknown

Used drive : ASUS DRW-24B1ST Adapter: 1 ID: 1

Read mode : Secure
Utilize accurate stream : Yes
Defeat audio cache : Yes
Make use of C2 pointers : No

Read offset correction : 6
Overread into Lead-In and Lead-Out : No
Fill up missing offset samples with silence : Yes
Delete leading and trailing silent blocks : No
Null samples used in CRC calculations : Yes
Used interface : Native Win32 interface for Win NT & 2000

Used output format : User Defined Encoder
Selected bitrate : 1024 kBit/s
Quality : High
Add ID3 tag : No
Command line compressor : C:\Program Files (x86)\Exact Audio Copy\Flac\flac.exe
Additional command line options : -V -8 -T "Date=%year%" -T "Genre=%genre%" %source%


TOC of the extracted CD

Track | Start | Length | Start sector | End sector
––––––––––––––––––––––––––––-
1 | 0:00.00 | 3:38.72 | 0 | 16421
2 | 3:38.72 | 3:36.02 | 16422 | 32623
3 | 7:14.74 | 4:36.00 | 32624 | 53323
4 | 11:50.74 | 3:54.00 | 53324 | 70873
5 | 15:44.74 | 3:49.01 | 70874 | 88049
6 | 19:34.00 | 3:25.60 | 88050 | 103484
7 | 22:59.60 | 4:39.14 | 103485 | 124423
8 | 27:38.74 | 4:23.01 | 124424 | 144149
9 | 32:02.00 | 4:13.00 | 144150 | 163124
10 | 36:15.00 | 6:23.74 | 163125 | 191923
11 | 42:38.74 | 4:26.74 | 191924 | 211947
12 | 47:05.73 | 5:25.01 | 211948 | 236323
13 | 52:30.74 | 5:23.00 | 236324 | 260548
14 | 57:53.74 | 5:45.02 | 260549 | 286425


Range status and errors

Selected range

Filename E:\Torrent\Queensryche\Queensryche & Geoff Tate - Frequency Unknown (2013) (Deadline Music, CLP 0275, U.S.A.)\Queensryche & Geoff Tate - Frequency Unknown.wav

Peak level 96.6 %
Extraction speed 5.7 X
Range quality 99.9 %
Test CRC 7DF73024
Copy CRC 7DF73024
Copy OK

No errors occurred


AccurateRip summary

Track 1 accurately ripped (confidence 14) [CD0CF1DC] (AR v2)
Track 2 accurately ripped (confidence 14) [3194640F] (AR v2)
Track 3 accurately ripped (confidence 14) [8B5005FC] (AR v2)
Track 4 accurately ripped (confidence 14) [57572478] (AR v2)
Track 5 accurately ripped (confidence 14) [F6F49FA5] (AR v2)
Track 6 accurately ripped (confidence 14) [429620C8] (AR v2)
Track 7 accurately ripped (confidence 14) [C14C8971] (AR v2)
Track 8 accurately ripped (confidence 14) [C179272C] (AR v2)
Track 9 accurately ripped (confidence 14) [4787C2D2] (AR v2)
Track 10 accurately ripped (confidence 14) [A084E6BB] (AR v2)
Track 11 accurately ripped (confidence 14) [8D8F095E] (AR v2)
Track 12 accurately ripped (confidence 14) [9A1E8740] (AR v2)
Track 13 accurately ripped (confidence 14) [C7DDBF64] (AR v2)
Track 14 accurately ripped (confidence 14) [248CF9A3] (AR v2)

All tracks accurately ripped

End of status report

–– CUETools DB Plugin V2.1.6

[CTDB TOCID: hNl45iljbJ0qHSH_rSVzCTUVHUI-] found
Submit result: hNl45iljbJ0qHSH_rSVzCTUVHUI- has been confirmed
Track | CTDB Status
1 | (17/17) Accurately ripped
2 | (17/17) Accurately ripped
3 | (17/17) Accurately ripped
4 | (17/17) Accurately ripped
5 | (17/17) Accurately ripped
6 | (17/17) Accurately ripped
7 | (17/17) Accurately ripped
8 | (17/17) Accurately ripped
9 | (17/17) Accurately ripped
10 | (17/17) Accurately ripped
11 | (17/17) Accurately ripped
12 | (17/17) Accurately ripped
13 | (17/17) Accurately ripped
14 | (17/17) Accurately ripped


==== Log checksum 17F38A589D55D785E9673507DD3E1061E00B78399514B970EB44332422C9A9A1 ====


[CUETools log; Date: 29.04.2019 5:35:19; Version: 2.1.4]
[CTDB TOCID: hNl45iljbJ0qHSH_rSVzCTUVHUI-] found.
Track | CTDB Status
1 | (39/39) Accurately ripped
2 | (39/39) Accurately ripped
3 | (39/39) Accurately ripped
4 | (39/39) Accurately ripped
5 | (39/39) Accurately ripped
6 | (39/39) Accurately ripped
7 | (39/39) Accurately ripped
8 | (39/39) Accurately ripped
9 | (39/39) Accurately ripped
10 | (39/39) Accurately ripped
11 | (39/39) Accurately ripped
12 | (39/39) Accurately ripped
13 | (39/39) Accurately ripped
14 | (39/39) Accurately ripped
[AccurateRip ID: 001e44a1-0148c3aa-b80eeb0e] found.
Track [ CRC | V2 ] Status
01 [46a85224|cd0cf1dc] (00+20/20) Accurately ripped
02 [a59f4896|3194640f] (00+20/20) Accurately ripped
03 [86afed2f|8b5005fc] (00+20/20) Accurately ripped
04 [16cd5fe3|57572478] (00+20/20) Accurately ripped
05 [d5571ace|f6f49fa5] (00+20/20) Accurately ripped
06 [c7ec0282|429620c8] (00+20/20) Accurately ripped
07 [57e643b8|c14c8971] (00+20/20) Accurately ripped
08 [f9957d06|c179272c] (00+20/20) Accurately ripped
09 [0899e09c|4787c2d2] (00+20/20) Accurately ripped
10 [6da11248|a084e6bb] (00+20/20) Accurately ripped
11 [c6c7471d|8d8f095e] (00+20/20) Accurately ripped
12 [ba1333fd|9a1e8740] (00+20/20) Accurately ripped
13 [3cf1c83a|c7ddbf64] (00+20/20) Accurately ripped
14 [6a2d8eb7|248cf9a3] (00+20/20) Accurately ripped

Track Peak [ CRC32 ] [W/O NULL] [ LOG ]
– 96,6 [7DF73024] [343A6CBC] CRC32
01 96,6 [E2318FD3] [9C0DDB3D]
02 96,6 [042A7DC8] [D783E870]
03 96,6 [4A7ED68D] [6B523F97]
04 96,6 [46B2407B] [086B42F6]
05 96,6 [F843B4F0] [FC10951D]
06 96,6 [8F9E4DB2] [9C21A229]
07 96,6 [F22F2BC9] [AAD65BBF]
08 96,6 [327D45D2] [835AB7BE]
09 96,6 [6CFEB339] [8991C0A5]
10 96,6 [F9A6DFD9] [D3A94F15]
11 96,6 [4A8D7456] [87CCC919]
12 91,1 [1D1900A4] [81C42B06]
13 96,6 [FD2D523F] [E585C8EF]
14 96,6 [8167A8DC] [C1ED3027]


All thanks go to Ginger Devil

Queensrÿche in my Blog

Download Geoff Tate: Discography (2002-2013):