Subcategories

George Lynch - Sacred Groove (1993) [Japan 1st Press, Promo]

Posted By: Andi_Deris
George Lynch - Sacred Groove (1993) [Japan 1st Press, Promo]

George Lynch - Sacred Groove (1993) [Japan 1st Press, Promo]
EAC Rip | FLAC: Image+Cue+Log | 439 Mb | MP3 CBR 320 kbps | 152 Mb | Scans | Time: 58:46
Genre: Hard Rock, Heavy Metal | Label: WEA Music K.K. | Cat.: WMC5-635

Sacred Groove is a George Lynch album from 1993. It contains a diverse range of tracks from different styles of music, for example, the instrumental Tierra Del Fuego has a significant Latin feel to it. There are four instrumentals and six songs on the album. A notable instrumental on the album is “Love Power from the Mama Head“, which shows off much of Lynch’s unique playing style. A number of guest vocalists also make appearances on "Sacred Groove" - an essential addition to a George Lynch fan's collection.

George Lynch - Sacred Groove (1993) [Japan 1st Press, Promo]




George Lynch - Sacred Groove (1993) [Japan 1st Press, Promo]


Track Listing

01. Memory Jack (intro) (1:38)
02. Love Power From The Mama Head (5:30)
03. Flesh & Blood (5:02)
04. We Don't Own This World (4:27)
05. I Will Remember (4:19)
06. The Beast, Part I (6:54)
07. The Beast, Part II (Addiction To The Friction) (2:50)
08. Not Necessary Evil (5:15)
09. Cry Of The Brave (5:06)
10. Tierra Del Fuego (6:04)

Bonus tracks for Japan
11. Satan's Penis (Previously Unreleased Instrumental Track) (7:20)
12. Shake My Rattle (Previously Unreleased Live Track) (4:22)

Produced by John Cuniberti

Musicians

• George Lynch (Dokken, Hear 'n Aid, Lynch Mob, Souls of We, Vince Neil, G3 tour, Dave Reffett, T & N, KXM) - Guitars, Sitar
• Chris Solberg - Bass
• Denny Fongheiser - Drums, Percussion (tracks: 6, 7, 9)
• John Cuniberti - Effects, Backing Vocals on The Beast
• Jeff Pilson - Bass on We Don't Own This World & I Will Remember
• Ray Gillen - Vocals on Flesh And Blood
• Gunnar Nelson, Matthew Nelson - Vocals on We Don't Own This World
• Mandy Lion - Vocals, Backing Vocals on The Beast
• Glenn Hughes - Vocals on Not Necessary Evil & Cry Of The Brave
• Pattie Brooks - Vocals on Not Necessary Evil
• Tommy Hendricks - Bass on Tierra Del Fuego

George Lynch - Sacred Groove (1993) [Japan 1st Press, Promo]


Exact Audio Copy V1.0 beta 3 from 29. August 2011

EAC extraction logfile from 9. November 2013, 14:22

George Lynch / Sacred Groove

Used drive : Optiarc DVD RW AD-7173S Adapter: 3 ID: 0

Read mode : Secure
Utilize accurate stream : Yes
Defeat audio cache : Yes
Make use of C2 pointers : No

Read offset correction : 48
Overread into Lead-In and Lead-Out : No
Fill up missing offset samples with silence : Yes
Delete leading and trailing silent blocks : No
Null samples used in CRC calculations : Yes
Used interface : Native Win32 interface for Win NT & 2000

Used output format : Internal WAV Routines
Sample format : 44.100 Hz; 16 Bit; Stereo


TOC of the extracted CD

Track | Start | Length | Start sector | End sector
––––––––––––––––––––––––––––-
1 | 0:00.00 | 1:38.30 | 0 | 7379
2 | 1:38.30 | 5:29.45 | 7380 | 32099
3 | 7:08.00 | 5:02.02 | 32100 | 54751
4 | 12:10.02 | 4:26.55 | 54752 | 74756
5 | 16:36.57 | 4:18.40 | 74757 | 94146
6 | 20:55.22 | 6:54.18 | 94147 | 125214
7 | 27:49.40 | 2:49.35 | 125215 | 137924
8 | 30:39.00 | 5:15.07 | 137925 | 161556
9 | 35:54.07 | 5:05.55 | 161557 | 184486
10 | 40:59.62 | 6:03.60 | 184487 | 211771
11 | 47:03.47 | 7:19.48 | 211772 | 244744
12 | 54:23.20 | 4:22.25 | 244745 | 264419


Range status and errors

Selected range

Filename M:\!!!EAC\George Lynch - Sacred Groove '93 (Japan 1993 Promo, WMC5-635)\George Lynch - Sacred Groove.wav

Peak level 100.0 %
Extraction speed 1.5 X
Range quality 100.0 %
Test CRC C4C7B13D
Copy CRC C4C7B13D
Copy OK

No errors occurred


AccurateRip summary

Track 1 accurately ripped (confidence 2) [98F20FFD] (AR v2)
Track 2 accurately ripped (confidence 2) [22BA14D9] (AR v2)
Track 3 accurately ripped (confidence 2) [202BC950] (AR v2)
Track 4 accurately ripped (confidence 2) [F952D0D0] (AR v2)
Track 5 accurately ripped (confidence 2) [D3B92366] (AR v2)
Track 6 accurately ripped (confidence 2) [A386FD5D] (AR v2)
Track 7 accurately ripped (confidence 2) [6D86126F] (AR v2)
Track 8 accurately ripped (confidence 2) [6EF76956] (AR v2)
Track 9 accurately ripped (confidence 2) [BFB1FE05] (AR v2)
Track 10 accurately ripped (confidence 2) [24EC4B9E] (AR v2)
Track 11 accurately ripped (confidence 2) [B94E607D] (AR v2)
Track 12 accurately ripped (confidence 2) [5F52B8DE] (AR v2)

All tracks accurately ripped

End of status report

==== Log checksum 707F137F73776F711ACB674229790639CD13ABAEF4E924CAAEB6993EEE20C1DD ====


Many thanks to the original uploader: Aazimus

––––––––––
Nitroflare