Subcategories

George Thorogood & The Destroyers - Half A Boy / Half A Man (1999)

Posted By: popsakov
George Thorogood & The Destroyers - Half A Boy / Half A Man (1999)

George Thorogood & The Destroyers - Half A Boy / Half A Man (1999)
EAC Rip | FLAC (Img) + Cue + Log ~ 340 Mb | MP3 CBR320 ~ 112 Mb
Full Scans (JPG, 600 dpi) ~ 48 Mb | RAR 5% Recovery
Boogie Rock, Blues Rock, Rock & Roll | SPV Recordings #SPV 085-29552 CD

Half a Boy/Half a Man is the eleventh studio album by George Thorogood and the Destroyers. It was released on April 13, 1999 on the CMC International label. The album peaked at #24 on the Billboard Mainstream Rock chart.

George Thorogood is an American musician, singer and songwriter from Wilmington, Delaware. His "high-energy boogie-blues" sound became a staple of 1980s rock radio, with hits like his original songs "Bad to the Bone" and "I Drink Alone". He has also helped popularize older songs by American icons, such as "Move It on Over", "Who Do You Love?", and "House Rent Boogie/One Bourbon, One Scotch, One Beer", which continue to get heavy airplay on classic rock radio.

With his band, the Delaware Destroyers, Thorogood has released over 20 albums, of which two have been certified Platinum and six have been certified Gold. He has sold 15 million albums worldwide. Thorogood and band continue to tour extensively and in 2014, celebrated their 40th anniversary of performing.
~ Wiki


***************

George Thorogood & The Destroyers - Half A Boy / Half A Man (1999)

George Thorogood & The Destroyers - Half A Boy / Half A Man (1999)

Track List:

01. I Don't Trust Nobody [5:03]
02. Double Shot [3:12]
03. 99 Days In Jail [3:54]
04. Half A Boy, Half A Man [3:28]
05. As Long As I Have You [4:04]
06. B.I.G.T.I.M.E. [3:08]
07. Be Bop Grandma [3:59]
08. Nothing New [3:25]
09. Just Passin' Thru [4:43]
10. Hellbound Train (Downbound Train) [4:57]
11. Not Tonight (I Have A Heartache) [3:28]
12. You Growed Up All Wrong [3:31]

Personnel:
George Thorogood - lead guitar, vocals
Jim Suhler - rhythm guitar
Billy Blough - bass guitar
Jeff Simons - drums
Hank Carter - saxophone

Exact Audio Copy V1.1 from 23. June 2015

EAC extraction logfile from 30. September 2017, 13:17

George Thorogood & The Destroyers / Half A Boy, Half A Man

Used drive : Optiarc DVD RW AD-7283S Adapter: 1 ID: 0

Read mode : Secure
Utilize accurate stream : Yes
Defeat audio cache : Yes
Make use of C2 pointers : No

Read offset correction : 48
Overread into Lead-In and Lead-Out : No
Fill up missing offset samples with silence : Yes
Delete leading and trailing silent blocks : No
Null samples used in CRC calculations : Yes
Used interface : Native Win32 interface for Win NT & 2000

Used output format : User Defined Encoder
Selected bitrate : 128 kBit/s
Quality : High
Add ID3 tag : No
Command line compressor : C:\Program Files (x86)\Exact Audio Copy\Flac\flac.exe
Additional command line options : -V -8 -T "Genre=%genre%" -T "Artist=%artist%" -T "Title=%title%" -T "Album=%albumtitle%" -T "Date=%year%" -T "Tracknumber=%tracknr%" -T "Comment=%comment%" %source%


TOC of the extracted CD

Track | Start | Length | Start sector | End sector
––––––––––––––––––––––––––––-
1 | 0:00.00 | 5:02.60 | 0 | 22709
2 | 5:02.60 | 3:12.02 | 22710 | 37111
3 | 8:14.62 | 3:53.70 | 37112 | 54656
4 | 12:08.57 | 3:27.73 | 54657 | 70254
5 | 15:36.55 | 4:04.20 | 70255 | 88574
6 | 19:41.00 | 3:07.42 | 88575 | 102641
7 | 22:48.42 | 3:58.58 | 102642 | 120549
8 | 26:47.25 | 3:24.67 | 120550 | 135916
9 | 30:12.17 | 4:43.18 | 135917 | 157159
10 | 34:55.35 | 4:56.67 | 157160 | 179426
11 | 39:52.27 | 3:27.58 | 179427 | 195009
12 | 43:20.10 | 3:31.17 | 195010 | 210851


Range status and errors

Selected range

Filename F:\alexbras\1999 - George Thorogood & The Destroyers - Half A Boy, Half A Man (SPV 085-29552 CD)\George Thorogood & The Destroyers - Half A Boy, Half A Man.wav

Peak level 99.8 %
Extraction speed 3.9 X
Range quality 99.9 %
Test CRC 1BC0DD95
Copy CRC 1BC0DD95
Copy OK

No errors occurred


AccurateRip summary

Track 1 accurately ripped (confidence 11) [253A91DF] (AR v2)
Track 2 accurately ripped (confidence 11) [1E31800E] (AR v2)
Track 3 accurately ripped (confidence 11) [136B3C70] (AR v2)
Track 4 accurately ripped (confidence 11) [756E840C] (AR v2)
Track 5 accurately ripped (confidence 11) [B711DABA] (AR v2)
Track 6 accurately ripped (confidence 11) [9B33C872] (AR v2)
Track 7 accurately ripped (confidence 11) [9DD77FE0] (AR v2)
Track 8 accurately ripped (confidence 11) [C10E63C7] (AR v2)
Track 9 accurately ripped (confidence 11) [F180050C] (AR v2)
Track 10 accurately ripped (confidence 10) [6B30E086] (AR v2)
Track 11 accurately ripped (confidence 11) [E678D89E] (AR v2)
Track 12 accurately ripped (confidence 11) [4420FB33] (AR v2)

All tracks accurately ripped

End of status report

==== Log checksum 331F5424DF981FF398129ADB8EAE964D0191E4645A0670628E856C475E55CCF0 ====

foobar2000 1.3.16 / Dynamic Range Meter 1.1.1
log date: 2017-10-16 16:25:08

––––––––––––––––––––––––––––––––––––––––
Analyzed: George Thorogood & The Destroyers / Half A Boy, Half A Man
––––––––––––––––––––––––––––––––––––––––

DR Peak RMS Duration Track
––––––––––––––––––––––––––––––––––––––––
DR8 -0.01 dB -8.61 dB 5:03 01-I Don't Trust Nobody
DR7 -0.01 dB -7.53 dB 3:12 02-Double Shot
DR8 -0.01 dB -8.73 dB 3:54 03-99 Days In Jail
DR7 -0.01 dB -7.74 dB 3:28 04-Half A Boy, Half A Man
DR7 -0.01 dB -8.27 dB 4:04 05-As Long As I Have You
DR7 -0.01 dB -7.99 dB 3:08 06-B.I.G.T.I.M.E.
DR8 -0.01 dB -9.04 dB 3:59 07-Be Bop Grandma
DR8 -0.01 dB -9.12 dB 3:25 08-Nothing New
DR8 -0.01 dB -8.25 dB 4:43 09-Just Passin' Thru
DR7 -0.01 dB -7.97 dB 4:57 10-Hellbound Train (Downbound Train)
DR9 -0.01 dB -10.30 dB 3:28 11-Not Tonight (I Have A Heartache)
DR7 -0.01 dB -8.02 dB 3:31 12-You Growed Up All Wrong
––––––––––––––––––––––––––––––––––––––––

Number of tracks: 12
Official DR value: DR8

Samplerate: 44100 Hz
Channels: 2
Bits per sample: 16
Bitrate: 966 kbps
Codec: FLAC
================================================================================

[CUETools log; Date: 16.10.2017 16:25:12; Version: 2.1.5]
[CTDB TOCID: 9mUDsF3mQfOu5k4zpY0ZUKVIi3o-] found.
Track | CTDB Status
1 | (36/36) Accurately ripped
2 | (36/36) Accurately ripped
3 | (36/36) Accurately ripped
4 | (36/36) Accurately ripped
5 | (36/36) Accurately ripped
6 | (36/36) Accurately ripped
7 | (36/36) Accurately ripped
8 | (36/36) Accurately ripped
9 | (36/36) Accurately ripped
10 | (36/36) Accurately ripped
11 | (36/36) Accurately ripped
12 | (36/36) Accurately ripped
[AccurateRip ID: 0014fa93-00c32bde-9e0afb0c] found.
Track [ CRC | V2 ] Status
01 [d3209d6c|253a91df] (18+11/38) Accurately ripped
02 [1d7bc174|1e31800e] (18+11/39) Accurately ripped
03 [3e489ad7|136b3c70] (18+11/38) Accurately ripped
04 [8ef4d18c|756e840c] (18+11/39) Accurately ripped
05 [5bb06889|b711daba] (18+11/39) Accurately ripped
06 [9d085a4a|9b33c872] (18+11/39) Accurately ripped
07 [e7767f81|9dd77fe0] (18+11/39) Accurately ripped
08 [013ea706|c10e63c7] (18+11/39) Accurately ripped
09 [4209c427|f180050c] (18+11/39) Accurately ripped
10 [944d205a|6b30e086] (18+10/38) Accurately ripped
11 [f0dc0ac2|e678d89e] (18+11/39) Accurately ripped
12 [df80ea2a|4420fb33] (18+11/39) Accurately ripped
Offsetted by -667:
01 [0ca93ea3] (05/38) Accurately ripped
02 [a896c0ec] (05/39) Accurately ripped
03 [08ee628b] (04/38) Accurately ripped
04 [9063894a] (05/39) Accurately ripped
05 [a0ee7869] (05/39) Accurately ripped
06 [e167393a] (05/39) Accurately ripped
07 [8b2e6d08] (05/39) Accurately ripped
08 [b5e3bf73] (05/39) Accurately ripped
09 [5c792218] (05/39) Accurately ripped
10 [149bf46b] (05/38) Accurately ripped
11 [9a3d2556] (05/39) Accurately ripped
12 [83be1924] (05/39) Accurately ripped

Track Peak [ CRC32 ] [W/O NULL] [ LOG ]
– 99,8 [1BC0DD95] [AFDF7C12] CRC32
01 99,8 [E7809609] [0541EDAF]
02 99,8 [88E40FD6] [F3D0B131]
03 99,8 [8EA7B944] [8168B333]
04 99,8 [1E16E379] [9D1015CA]
05 99,8 [20861ED9] [F1224805]
06 99,8 [2DCDF21A] [45760466]
07 99,8 [90727163] [FFDE200D]
08 99,8 [343ED5BF] [BA827A21]
09 99,8 [706422DF] [7F9A4F03]
10 99,8 [B682A682] [370EB9BC]
11 99,8 [EBB522CE] [EC882792]
12 99,8 [D1BA9CB5] [A4CB8B41]

George Thorogood & The Destroyers - Half A Boy / Half A Man (1999)

All thanks go to alex1248

>>> My Blog <<<

Download from icerbox.com: