Subcategories

George Winston - December (1982) 20th Anniversary Edition, 2001

Posted By: Designol
George Winston - December (1982) 20th Anniversary Edition, 2001

George Winston - December (1982) 20th Anniversary Edition, 2001
EAC | FLAC | APE (Cue&Log) ~ 181 Mb | Mp3 (CBR320) ~ 110 Mb | Scans included
Label: Windham Hill/BMG | # BMGSD-7781, 01934 11611-2 | 00:46:22
Neo-Classical, Contemporary, New Age, Christmas

December is the fourth solo piano album from George Winston. It was recorded during the fall of 1982 and was released at the end of the year. It is a Christmas album, and more generally a tribute to the winter season. The album is a follow up to Autumn. December is Winston's highest-selling album, having been certified triple Platinum by the RIAA, signifying 3 million copies in shipment. The success of the album, along with several of Winston's other albums from the early 1980s, enabled the record label, Windham Hill, to get international distribution and a much higher profile. A 20th Anniversary Edition of the album, with two bonus tracks, was released in 2001.

The mother of all solo instrumental albums, and with good reason. Mixing traditional carols with Pachelbel's Canon and a few originals, Winston produces a solo piano album of unparalleled – and undeniable – beauty. How can music be simultaneously stirring and soothing, relaxed yet exalted? Millions have found the answer here, and an industry has spent decades trying to duplicate it.

Review by William Ruhlmann, Allmusic.com

December holds the distinction of single-handedly putting Windham Hill on the map and being the new age album most likely to find its way into music collections of all ilk. In spite of being relentlessly overplayed during the holidays, the solo piano recording has aged quite well. Winston shapes holiday war-horses and original compositions into a captivating contemporary statement. His spare, understated style captures the feel of the dark season, employing ample resonance to evoke a reflective spaciousness. The album's straightforward simplicity conveys both the celebration and quietude that characterize the best of the Yuletide spirit.

Review by Richard Price

George Winston - December (1982) 20th Anniversary Edition, 2001



Tracklist:

01. Thanksgiving (4:08)
02. Jesus, Jesus, Rest Your Head (2:37)
03. Joy (3:16)
04. Prelude (1:16)
05. Carol of the Bells (4:00)
06. Night Part One: Snow (1:57)
07. Night Part Two: Midnight (1:54)
08. Night Part Three: Minstrels (2:18)
09. Variations on the Kanon by Pachelbel (5:24)
10. The Holly and the Ivy (4:56)
11. Some Children See Him (3:52)
12. Peace (4:14)

Bonus Tracks:
13. A Christmas Song (2:25)
14. Sleep Baby Mine (4:05)


Exact Audio Copy V0.99 prebeta 3 from 28. July 2007

Отчёт EAC об извлечении, выполненном 29. января 2009, 18:59

George Winston / December - 20th Anniversary Edition

Дисковод: Optiarc DVD RW AD-7170S Adapter: 1 ID: 1

Режим чтения : Достоверность
Использование точного потока : Да
Отключение кэша аудио : Да
Использование указателей C2 : Нет

Коррекция смещения при чтении : 48
Способность читать области Lead-in и Lead-out : Нет
Заполнение пропущенных сэмплов тишиной : Да
Удаление блоков с тишиной в начале и конце : Нет
При вычислениях CRC использовались нулевые сэмплы : Да
Интерфейс : Встроенный Win32-интерфейс для Win NT/2000

Выходной формат : Внутренние WAV-операции
Формат сэмплов : 44.100 Гц; 16 бит; стерео


TOC извлечённого CD

Трек | Старт | Длительность | Начальный сектор | Конечный сектор
––––––––––––––––––––––––––––––––––-
1 | 0:00.00 | 4:07.60 | 0 | 18584
2 | 4:07.60 | 2:37.24 | 18585 | 30383
3 | 6:45.09 | 3:15.42 | 30384 | 45050
4 | 10:00.51 | 1:16.33 | 45051 | 50783
5 | 11:17.09 | 4:00.02 | 50784 | 68785
6 | 15:17.11 | 1:56.43 | 68786 | 77528
7 | 17:13.54 | 1:54.21 | 77529 | 86099
8 | 19:08.00 | 2:18.00 | 86100 | 96449
9 | 21:26.00 | 5:23.38 | 96450 | 120712
10 | 26:49.38 | 4:55.68 | 120713 | 142905
11 | 31:45.31 | 3:52.02 | 142906 | 160307
12 | 35:37.33 | 4:14.26 | 160308 | 179383
13 | 39:51.59 | 2:25.16 | 179384 | 190274
14 | 42:17.00 | 4:04.38 | 190275 | 208612
15 | 48:53.38 | 0:57.57 | 220013 | 224344


Характеристики диапазона извлечения и сообщения об ошибках

Выбранный диапазон

Имя файла D:\audio_tmp\George Winston - December - 20th Anniversary Edition\George Winston - December - 20th Anniversary Edition.wav

Пиковый уровень 99.5 %
Качество диапазона 100.0 %
CRC копии D8E69E4A
Копирование… OK

Ошибок не произошло

Конец отчёта

[CUETools log; Date: 15.11.2017 19:19:10; Version: 2.1.4]
CD-Extra data track length 00:57:57.
[CTDB TOCID: X.Q0eBLfDRRFORsP0S04PTB07V8-] found.
Track | CTDB Status
1 | (152/153) Accurately ripped
2 | (153/153) Accurately ripped
3 | (123/153) Accurately ripped, or (27/153) differs in 35 samples @01:28:04
4 | (153/153) Accurately ripped
5 | (153/153) Accurately ripped
6 | (151/153) Accurately ripped
7 | (151/153) Accurately ripped
8 | (150/153) Accurately ripped
9 | (151/153) Accurately ripped
10 | (152/153) Accurately ripped
11 | (152/153) Accurately ripped
12 | (150/153) Accurately ripped
13 | (153/153) Accurately ripped
14 | (152/153) Accurately ripped
[AccurateRip ID: 0016c290-00f6411d-d00baf0f] found.
Track [ CRC | V2 ] Status
01 [b8b452ec|6f75a9fe] (000+000/206) No match
02 [9395cbf3|fa2d8712] (000+000/205) No match
03 [f91bc77a|a69b9583] (000+000/206) No match
04 [48c90f82|bdcf02df] (000+000/207) No match
05 [cfccc323|7b822a52] (000+000/205) No match
06 [38df1f50|40cede3e] (000+000/207) No match
07 [8cce5fc9|23606783] (000+000/209) No match
08 [8e6ae7d4|775d36a1] (000+000/208) No match
09 [6e15f9fe|dbcd867b] (000+000/208) No match
10 [7916e015|65c394f9] (000+000/203) No match
11 [052df294|6a49c16a] (000+000/203) No match
12 [3337262e|b8697206] (000+000/202) No match
13 [776e387a|3c108914] (000+000/206) No match
14 [1a90f5d7|78062e6f] (000+000/200) No match
Offsetted by 35:
01 [e2511b9d] (013/206) Accurately ripped
02 [e69f7ed2] (013/205) Accurately ripped
03 [ea2737c9] (014/206) Accurately ripped
04 [8f861645] (014/207) Accurately ripped
05 [0d8e5b3d] (014/205) Accurately ripped
06 [0ca98f6f] (014/207) Accurately ripped
07 [0f2794cc] (014/209) Accurately ripped
08 [e849c9b1] (014/208) Accurately ripped
09 [2d2b92cf] (015/208) Accurately ripped
10 [4d890e3f] (014/203) Accurately ripped
11 [9ef872ec] (014/203) Accurately ripped
12 [7e0429d0] (014/202) Accurately ripped
13 [5de1bf12] (014/206) Accurately ripped
14 [e51f8f03] (014/200) Accurately ripped
Offsetted by 676:
01 [7604d638] (004/206) Accurately ripped
02 [a46aca7a] (004/205) Accurately ripped
03 [fea3b25f] (004/206) Accurately ripped
04 [4bc7306e] (004/207) Accurately ripped
05 [d9a91e17] (004/205) Accurately ripped
06 [be6e35c4] (004/207) Accurately ripped
07 [64a59178] (004/209) Accurately ripped
08 [29feea8d] (004/208) Accurately ripped
09 [0bf19eca] (004/208) Accurately ripped
10 [ac37d80d] (004/203) Accurately ripped
11 [2a83beb4] (004/203) Accurately ripped
12 [718a47c6] (004/202) Accurately ripped
13 [8846d93b] (004/206) Accurately ripped
14 [c8f852ce] (004/200) Accurately ripped
Offsetted by 681:
01 [7bf6a9bf] (051/206) Accurately ripped
02 [0bb0cc5a] (049/205) Accurately ripped
03 [fac89459] (049/206) Accurately ripped
04 [aec546af] (050/207) Accurately ripped
05 [a74bf0e5] (049/205) Accurately ripped
06 [4a668eed] (050/207) Accurately ripped
07 [eb1fe9ec] (049/209) Accurately ripped
08 [20af2c49] (050/208) Accurately ripped
09 [273dd931] (050/208) Accurately ripped
10 [816cba13] (049/203) Accurately ripped
11 [ae32f59c] (050/203) Accurately ripped
12 [7c39da94] (049/202) Accurately ripped
13 [caa0601a] (051/206) Accurately ripped
14 [e5ef17d6] (051/200) Accurately ripped
Offsetted by 819:
01 [ecd5de4d] (004/206) Accurately ripped
02 [ba1dfb12] (004/205) Accurately ripped
03 [3b45b975] (004/206) Accurately ripped
04 [deb67cfc] (004/207) Accurately ripped
05 [2b186296] (004/205) Accurately ripped
06 [2e602bbf] (004/207) Accurately ripped
07 [7cbaf9aa] (004/209) Accurately ripped
08 [1902764f] (004/208) Accurately ripped
09 [b2428b7f] (004/208) Accurately ripped
10 [4ab9e51f] (004/203) Accurately ripped
11 [ad7d476c] (004/203) Accurately ripped
12 [6ff47b30] (004/202) Accurately ripped
13 [0d80fa03] (004/206) Accurately ripped
14 [37a78cb6] (004/200) Accurately ripped
Offsetted by 1345:
01 [f7cf97c7] (028/206) Accurately ripped
02 [0f5c3bab] (028/205) Accurately ripped
03 [70df0904] (028/206) Accurately ripped
04 [7dbaa52e] (028/207) Accurately ripped
05 [6c7e8506] (028/205) Accurately ripped
06 [4cd4cf65] (028/207) Accurately ripped
07 [9f55c1cb] (028/209) Accurately ripped
08 [3921320e] (028/208) Accurately ripped
09 [1d2f5839] (028/208) Accurately ripped
10 [81a86063] (028/203) Accurately ripped
11 [644aa45c] (028/203) Accurately ripped
12 [6db468a4] (028/202) Accurately ripped
13 [c4e87b9e] (028/206) Accurately ripped
14 [2ec27fbc] (022/200) Accurately ripped
Offsetted by -660:
01 [a8034150] (002/206) Accurately ripped
02 [6889e904] (002/205) Accurately ripped
03 [341159cd] (000/206) No match (V2 was not tested)
04 [40cdbe76] (002/207) Accurately ripped
05 [2685603f] (002/205) Accurately ripped
06 [0cd1262c] (002/207) Accurately ripped
07 [c43d07e4] (002/209) Accurately ripped
08 [039e528d] (002/208) Accurately ripped
09 [5ac7dce2] (002/208) Accurately ripped
10 [89d254fd] (002/203) Accurately ripped
11 [1ed5a2f4] (002/203) Accurately ripped
12 [b0af73f6] (002/202) Accurately ripped
13 [0fe79770] (002/206) Accurately ripped
14 [8e646c62] (002/200) Accurately ripped
Offsetted by -657:
01 [786126a1] (000/206) No match (V2 was not tested)
02 [070ffaed] (000/205) No match (V2 was not tested)
03 [40858c72] (000/206) No match (V2 was not tested)
04 [8ed4e366] (000/207) No match (V2 was not tested)
05 [60094a8c] (000/205) No match (V2 was not tested)
06 [2d995bab] (000/207) No match (V2 was not tested)
07 [8a267782] (000/209) No match (V2 was not tested)
08 [58f6544f] (000/208) No match (V2 was not tested)
09 [04c26653] (000/208) No match (V2 was not tested)
10 [d68ba967] (000/203) No match (V2 was not tested)
11 [3aa52a4c] (000/203) No match (V2 was not tested)
12 [83e598d8] (000/202) No match (V2 was not tested)
13 [ae00cec5] (000/206) No match (V2 was not tested)
14 [d0e4f0e7] (000/200) No match (V2 was not tested)
Offsetted by -516:
01 [b99e4080] (000/206) No match (V2 was not tested)
02 [c5828c0a] (000/205) No match (V2 was not tested)
03 [f077b19f] (000/206) No match (V2 was not tested)
04 [dc4a7e28] (000/207) No match (V2 was not tested)
05 [45e05ae9] (000/205) No match (V2 was not tested)
06 [325b2dfc] (000/207) No match (V2 was not tested)
07 [5feff81a] (000/209) No match (V2 was not tested)
08 [b531d9e3] (000/208) No match (V2 was not tested)
09 [39c1a212] (000/208) No match (V2 was not tested)
10 [ec9228dd] (000/203) No match (V2 was not tested)
11 [55bf0374] (000/203) No match (V2 was not tested)
12 [4ad65e56] (000/202) No match (V2 was not tested)
13 [51b0325f] (000/206) No match (V2 was not tested)
14 [7c2f7270] (000/200) No match (V2 was not tested)
Offsetted by 7:
01 [f43a14a9] (000/206) No match (V2 was not tested)
02 [6df12e6c] (000/205) No match (V2 was not tested)
03 [610ae663] (000/206) No match (V2 was not tested)
04 [a89a0f2b] (000/207) No match (V2 was not tested)
05 [e782171f] (000/205) No match (V2 was not tested)
06 [30079c23] (000/207) No match (V2 was not tested)
07 [d3c987ce] (000/209) No match (V2 was not tested)
08 [e8ebbadf] (000/208) No match (V2 was not tested)
09 [fab3e55b] (000/208) No match (V2 was not tested)
10 [d6c74fb7] (000/203) No match (V2 was not tested)
11 [f0bcd90c] (000/203) No match (V2 was not tested)
12 [756026e8] (000/202) No match (V2 was not tested)
13 [db35e015] (000/206) No match (V2 was not tested)
14 [5e17f7fa] (000/200) No match (V2 was not tested)
Offsetted by 1340:
01 [f1ddc440] (000/206) No match (V2 was not tested)
02 [cb7b5d67] (000/205) No match (V2 was not tested)
03 [804c720e] (000/206) No match (V2 was not tested)
04 [dd84660c] (000/207) No match (V2 was not tested)
05 [e5efda19] (000/205) No match (V2 was not tested)
06 [c0dc763c] (000/207) No match (V2 was not tested)
07 [80229974] (000/209) No match (V2 was not tested)
08 [916a05c5] (000/208) No match (V2 was not tested)
09 [01e31dd2] (000/208) No match (V2 was not tested)
10 [ac737e5d] (000/203) No match (V2 was not tested)
11 [e09b6d74] (000/203) No match (V2 was not tested)
12 [6304d5d6] (000/202) No match (V2 was not tested)
13 [a16e2d16] (000/206) No match (V2 was not tested)
14 [7f7da951] (000/200) No match (V2 was not tested)

Track Peak [ CRC32 ] [W/O NULL] [ LOG ]
– 99,5 [D8E69E4A] [1AFDE0F4] CRC32
01 95,9 [651953E9] [0BC8F85E]
02 92,5 [2D32668A] [D3355CDD]
03 79,7 [E19E7E28] [FDA86A35]
04 43,9 [49425705] [7F4C5930]
05 99,5 [943E1551] [549536DA]
06 94,5 [22D28C29] [8301D7D0]
07 21,4 [8DB9FF20] [08C97133]
08 46,1 [A8CE27C2] [EDEF6D66]
09 99,5 [A52FAFA7] [BD7755ED]
10 99,4 [769F9C47] [C6735187]
11 96,8 [571C99E4] [E1961890]
12 99,5 [73D09F9A] [B750117D]
13 41,9 [1877E13A] [039D4061]
14 51,0 [AF52C5B4] [9C5E44F7]

foobar2000 1.2 / Dynamic Range Meter 1.1.1
log date: 2017-11-15 20:30:11

––––––––––––––––––––––––––––––––––––––––
Analyzed: George Winston / December - 20th Anniversary Edition
––––––––––––––––––––––––––––––––––––––––

DR Peak RMS Duration Track
––––––––––––––––––––––––––––––––––––––––
DR14 -0.36 dB -19.65 dB 4:08 01-Thanksgiving
DR13 -0.67 dB -19.30 dB 2:37 02-Jesus, Jesus, Rest Your Head
DR12 -1.96 dB -18.13 dB 3:16 03-Joy
DR13 -7.14 dB -24.59 dB 1:16 04-Prelude
DR14 -0.04 dB -18.22 dB 4:00 05-Carol of the Bells
DR13 -0.48 dB -17.68 dB 1:57 06-Night Part One: Snow
DR12 -13.35 dB -34.16 dB 1:54 07-Night Part Two: Midnight
DR12 -6.72 dB -25.51 dB 2:18 08-Night Part Three: Minstrels
DR12 -0.04 dB -16.96 dB 5:24 09-Variations on the Kanon by Pachelbel
DR12 -0.05 dB -14.70 dB 4:56 10-The Holly and the Ivy
DR13 -0.28 dB -18.20 dB 3:52 11-Some Children See Him
DR19 -0.04 dB -24.39 dB 4:14 12-Peace
DR13 -7.55 dB -25.65 dB 2:25 13-A Christmas Song
DR16 -5.83 dB -25.65 dB 4:05 14-Sleep Baby Mine
––––––––––––––––––––––––––––––––––––––––

Number of tracks: 14
Official DR value: DR14

Samplerate: 44100 Hz
Channels: 2
Bits per sample: 16
Bitrate: 534 kbps
Codec: Monkey's Audio
================================================================================

George Winston - December (1982) 20th Anniversary Edition, 2001

George Winston - December (1982) 20th Anniversary Edition, 2001