Subcategories

George Williams Orchestra & Big Band - Swing Classics in Stereo & Put on Your Dancing Shoes (2003)

Posted By: PCWhizzkid
George Williams Orchestra & Big Band - Swing Classics in Stereo & Put on Your Dancing Shoes (2003)

George Williams Orchestra & Big Band - Swing Classics in Stereo & Put on Your Dancing Shoes (2003)
EAC V1.0 beta 1 | FLAC ( Secure Mode ) Image + Cue + Log - 438 MB
FULL SCANS - 16 MB (600dpi) | Recovery Record + 3%
Genre: Jazz / Big Band | Label: EMI | Catalogue No: 7243 5 81346 29
Wupload & Filesonic

These are two swinging classic recordings on one CD.The first - George Williams and his Orchestra and the other George Williams and his Swinging Big Band, and they do swing.As well as having his own big band he arranged for Jimmie Lunceford,Glenn Miller,Benny Goodman,Gene Krupa,Ray Anthony and Jackie Gleason.


TRACK LIST:

1. Marie
2. Flying Home
3. Boogierockawoogie
4. Back Bay Shuffle
5. Breakin' In A Pair Of Shoes
6. Empty Jug
7. Drum Boogie
8. One For My Baby
9. Prompton Turnpike
10. Breeze And I
11. Take The 'A' Train
12. Endville Chorus
13. Swanee River
14. That's What You Think
15. Frenesi
16. I Can't Get Started
17. Celery Stalks At Midnight
18. Adios
19. Music Makers
20. Blue And Sentimental
21. Don't Get Around Much Anymore
22. Smoke Rings
23. I'll Never Smile Again
24. Rose Of The Rio Grande


Recording Time 01:06:59


Exact Audio Copy V1.0 beta 1 from 15. November 2010

EAC extraction logfile from 1. July 2011, 12:33

George Williams / Swing Classics in Stereo & Put on Your Dancing Shoes

Used drive : HL-DT-STDVDRAM GH22NS40 Adapter: 5 ID: 0

Read mode : Secure
Utilize accurate stream : Yes
Defeat audio cache : Yes
Make use of C2 pointers : No

Read offset correction : 667
Overread into Lead-In and Lead-Out : No
Fill up missing offset samples with silence : Yes
Delete leading and trailing silent blocks : No
Null samples used in CRC calculations : Yes
Used interface : Native Win32 interface for Win NT & 2000

Used output format : User Defined Encoder
Selected bitrate : 1024 kBit/s
Quality : High
Add ID3 tag : No
Command line compressor : C:\Program Files (x86)\Exact Audio Copy\FLAC\FLAC.EXE
Additional command line options : -6 -V -T "ARTIST=%a" -T "TITLE=%t" -T "ALBUM=%g" -T "DATE=%y" -T "TRACKNUMBER=%n" -T "GENRE=%m" -T "COMMENT=%e" %j–picture="%i"%j %s -o %d


TOC of the extracted CD

Track | Start | Length | Start sector | End sector
––––––––––––––––––––––––––––-
1 | 0:00.00 | 2:25.42 | 0 | 10916
2 | 2:25.42 | 3:33.68 | 10917 | 26959
3 | 5:59.35 | 3:56.70 | 26960 | 44729
4 | 9:56.30 | 2:57.05 | 44730 | 58009
5 | 12:53.35 | 2:38.65 | 58010 | 69924
6 | 15:32.25 | 3:00.62 | 69925 | 83486
7 | 18:33.12 | 4:09.05 | 83487 | 102166
8 | 22:42.17 | 3:36.23 | 102167 | 118389
9 | 26:18.40 | 3:58.70 | 118390 | 136309
10 | 30:17.35 | 2:49.67 | 136310 | 149051
11 | 33:07.27 | 2:49.15 | 149052 | 161741
12 | 35:56.42 | 2:04.68 | 161742 | 171109
13 | 38:01.35 | 2:38.07 | 171110 | 182966
14 | 40:39.42 | 2:22.15 | 182967 | 193631
15 | 43:01.57 | 2:02.43 | 193632 | 202824
16 | 45:04.25 | 2:23.57 | 202825 | 213606
17 | 47:28.07 | 2:41.00 | 213607 | 225681
18 | 50:09.07 | 1:50.28 | 225682 | 233959
19 | 51:59.35 | 2:41.15 | 233960 | 246049
20 | 54:40.50 | 3:02.55 | 246050 | 259754
21 | 57:43.30 | 2:20.32 | 259755 | 270286
22 | 60:03.62 | 2:23.20 | 270287 | 281031
23 | 62:27.07 | 1:51.58 | 281032 | 289414
24 | 64:18.65 | 2:40.12 | 289415 | 301426


Range status and errors

Selected range

Filename T:\George Williams - Swing Classics in Stereo & Put on Your Dancing Shoes.wav

Peak level 97.7 %
Extraction speed 0.0 X
Range quality 100.0 %
Copy CRC 4AD727EB
Copy OK

No errors occurred


AccurateRip summary

Track 1 not present in database
Track 2 not present in database
Track 3 not present in database
Track 4 not present in database
Track 5 not present in database
Track 6 not present in database
Track 7 not present in database
Track 8 not present in database
Track 9 not present in database
Track 10 not present in database
Track 11 not present in database
Track 12 not present in database
Track 13 not present in database
Track 14 not present in database
Track 15 not present in database
Track 16 not present in database
Track 17 not present in database
Track 18 not present in database
Track 19 not present in database
Track 20 not present in database
Track 21 not present in database
Track 22 not present in database
Track 23 not present in database
Track 24 not present in database

None of the tracks are present in the AccurateRip database

End of status report

==== Log checksum C9146EAD1E233C9F6FEDE98B9F8A2B2704DEDE233685119B57015118F4A48B3C ====




George Williams Orchestra & Big Band - Swing Classics in Stereo & Put on Your Dancing Shoes (2003)



George Williams Orchestra & Big Band - Swing Classics in Stereo & Put on Your Dancing Shoes (2003)