Subcategories

Gerard Lesne, Il Seminario Musicale - Hasse: I Pellegrini al Sepolcro di Nostro Signore (1998)

Posted By: ArlegZ
Gerard Lesne, Il Seminario Musicale - Hasse: I Pellegrini al Sepolcro di Nostro Signore (1998)

Gérard Lesne, Il Seminario Musicale - Hasse: I Pellegrini al Sepolcro di Nostro Signore (1998)
EAC | FLAC | Image (Cue & Log) ~ 362 Mb | Total time: 75:23 | Scans included
Classical | Label: Virgin | # 5 45329 2 | Recorded: 1997

Gérard Lesne has already given us some glorious music by largely forgotten composers such as Galuppi and Jommelli. Now he’s turned to Hasse, little-known in this year of his tercentenary but renowned in the 1700s for his operas and oratorios. A German-born composer of Italianate music, Hasse’s work exemplifies the stylistic transition from late Baroque through galant to early Viennese classicism. His 1742 sacred oratorio I pellegrini al sepolcro di Nostro Signore (The Pilgrims at the Tomb of Our Lord) is operatic in style, its succession of busy, inventive da capo arias impressively sung here by Lesne and his team, though Il Seminario Musicale’s strings can sound dry. Hasse is featured, too, in Opus 111’s new budget-price reissue series, Invitation. Mottetti virtuosi, recorded in 1993, comprises one sacred motet and one Salve Regina apiece for alto and soprano soloists. Though this music is less ambitious than I pellegrini’s, Hasse’s melodic gifts are even more evident, as are his links back to Handel (the lilting ‘Caelesti incendi amoris’) and forward to Haydn (the exquisite G major ‘Et Jesu’). Fine performances, capped by Monique Zanetti’s limpid soprano, make this disc an ideal introduction to Hasse at his most engagingly lyrical.
(Graham Lock)

Performer:
Agapito – Rachel Elliott
Eugenio - Valérie Gabail
Teotimo - Gérard Lesne
Albino - Michael Chance
Guida - Peter Harvey
Il Seminario musicale
Direction - Gérard Lesne

Track List:
01. Parte Prima. Sinfonia
02. Recitativo: Di Solima distrutta lo squallore (Eugenio)
03. Aria: Del cammin più lo stento non sento (Eugenio)
04. Recitativo: Grazie a quel Dio che della nostra carco (Teotimo)
05. Aria: Senti 'l mar l'Onnipotente
06. Recitativo: A chi di cuor l'invoca (Albino, Teotimo, Agapito, Eugenio, Guida)
07. Aria: Non così cervo assetato (Agapito)
08. Recitativo: Quanto scorgete intorno, alme fedeli (Guida)
09. Lauda: Le porte a noi dissera (Albino, Teotimo, Agapito, Eugenio, Guida)
10. Parte Seconda. Recitativo: Il Getsemani è questo (Guida, Eugenio)
11. Aria: Era amor quei che dal fronte (Eugenio)
12. Recitativo: Costi di tosco infetto (Guida, Agapito, Albino, Teotimo, Eugenio)
13. Aria: D'aspri legato (Guida)
14. Recitativo: Barbari, oimé! fermate, e in me volgete (Teotimo, Guida, Agapito)
15. Aria: Viva fonte sia la fronte (Agapito)
16. Recitativo: Dall'horror de' miei falli, e dal castigo (Teotimo, Eugenio, Albino, Guida)
17. Aria: Scaccia l'orror, le tenebre (Teotimo)
18. Coro: Pellegrino è l'uomo in terra


Exact Audio Copy V1.0 beta 3 from 29. August 2011

EAC extraction logfile from 3. September 2017, 13:11

Gérard Lesne, Il Seminario Musicale / Hasse - I Pellegrini al Sepolcro di Nostro Signore

Used drive : HL-DT-STDVDRAM GH24NS95 Adapter: 0 ID: 0

Read mode : Secure
Utilize accurate stream : Yes
Defeat audio cache : Yes
Make use of C2 pointers : No

Read offset correction : 6
Overread into Lead-In and Lead-Out : No
Fill up missing offset samples with silence : Yes
Delete leading and trailing silent blocks : No
Null samples used in CRC calculations : Yes
Used interface : Native Win32 interface for Win NT & 2000

Used output format : User Defined Encoder
Selected bitrate : 128 kBit/s
Quality : High
Add ID3 tag : No
Command line compressor : C:\Program Files\Exact Audio Copy\Flac\flac.exe
Additional command line options : -V -8 -T "Date=%year%" -T "Genre=%genre%" %source%


TOC of the extracted CD

Track | Start | Length | Start sector | End sector
––––––––––––––––––––––––––––-
1 | 0:00.00 | 3:15.12 | 0 | 14636
2 | 3:15.12 | 1:02.03 | 14637 | 19289
3 | 4:17.15 | 4:27.07 | 19290 | 39321
4 | 8:44.22 | 1:09.58 | 39322 | 44554
5 | 9:54.05 | 5:35.22 | 44555 | 69701
6 | 15:29.27 | 2:51.50 | 69702 | 82576
7 | 18:21.02 | 6:48.60 | 82577 | 113236
8 | 25:09.62 | 1:23.55 | 113237 | 119516
9 | 26:33.42 | 4:03.33 | 119517 | 137774
10 | 30:37.00 | 1:47.55 | 137775 | 145854
11 | 32:24.55 | 5:38.02 | 145855 | 171206
12 | 38:02.57 | 2:52.45 | 171207 | 184151
13 | 40:55.27 | 7:29.38 | 184152 | 217864
14 | 48:24.65 | 7:02.00 | 217865 | 249514
15 | 55:26.65 | 6:38.45 | 249515 | 279409
16 | 62:05.35 | 3:49.55 | 279410 | 296639
17 | 65:55.15 | 4:44.45 | 296640 | 317984
18 | 70:39.60 | 4:41.09 | 317985 | 339068


Range status and errors

Selected range

Filename C:\Hasse - I Pellegrini al Sepolcro di Nostro Signore.wav

Peak level 100.0 %
Extraction speed 8.4 X
Range quality 100.0 %
Test CRC 88C14CB2
Copy CRC 88C14CB2
Copy OK

No errors occurred

End of status report

==== Log checksum 0B51612E9B83D3C9DC9CC6C368F1E6465EAC1EE56026D71118A24B9F13F699B9 ====

Gerard Lesne, Il Seminario Musicale - Hasse: I Pellegrini al Sepolcro di Nostro Signore (1998)