Subcategories

Gianna Nannini - Grazie (2006)

Posted By: olafweisse
Gianna Nannini - Grazie (2006)

Gianna Nannini - Grazie
(Bonus Tracks Edition, 2007)
EAC Rip | APE, IMG+CUE, LOG | 328,1 MB | MP3 CBR 320 Kbps | 108,1 MB | Complete Scans (300 dpi) | 12,9 MB
Pop-Rock | Label: Polydor | Catalog Number: 460502601 382 | Time: 51:24 | RAR | RS.com


Tracklisting:

1 Sei nell'anima 4:29
2 Possiamo sempre 4:23
3 L'abbandono 4:01
4 Grazie 3:31
5 Le carezze 4:10
6 Babbino caro 4:37
7 Treno bis 2:55
8 Io 4:32
9 Mi fai incazzare 4:13
10 Alla fine 4:37
Bonus tracks:
11 Io (Live) 5:15
12 Hold The Moon 4:32


Credits:

Gianna Nannini: vocals
Wil Malone: strings
Davide Tagliapietra, Rudiger Elze, Fausto Mesolella, Camillo Sampaolo, Gianna Nannini: guitars
Hans Maahn, Lino de Rosa: bass
Thomas Lang: drums
Francesco Sartori, Wil Malone, Ani Martirosyan: piano
I Piccoli Cantori di Milano: choir
Gianna Nannini, Giulia Santorini, Wil Malone, Delay Lama : backing vocaks

Prodotto da Wil Malone & Gianna Nannini


Exact Audio Copy V0.99 prebeta 4 from 23. January 2008

EAC extraction logfile from 7. October 2008, 23:55

Gianna Nannini / Grazie (+ Bonus Tracks)

Used drive : Optiarc DVD RW AD-7630A Adapter: 0 ID: 1

Read mode : Secure
Utilize accurate stream : Yes
Defeat audio cache : Yes
Make use of C2 pointers : No

Read offset correction : 48
Overread into Lead-In and Lead-Out : No
Fill up missing offset samples with silence : Yes
Delete leading and trailing silent blocks : No
Null samples used in CRC calculations : Yes
Used interface : Native Win32 interface for Win NT & 2000

Used output format : Monkey's Audio Lossless Encoder
Selected bitrate : High Lossless Compression
Quality : High
Add ID3 tag : Yes
Command line compressor : C:\Program Files\Monkey's Audio\Monkey's Audio.exe
Use compression offset : 0


TOC of the extracted CD

Track | Start | Length | Start sector | End sector
––––––––––––––––––––––––––––-
1 | 0:00.00 | 4:30.28 | 0 | 20277
2 | 4:30.28 | 4:24.00 | 20278 | 40077
3 | 8:54.28 | 4:01.05 | 40078 | 58157
4 | 12:55.33 | 3:32.05 | 58158 | 74062
5 | 16:27.38 | 4:11.52 | 74063 | 92939
6 | 20:39.15 | 4:37.33 | 92940 | 113747
7 | 25:16.48 | 2:56.67 | 113748 | 127014
8 | 28:13.40 | 4:32.61 | 127015 | 147475
9 | 32:46.26 | 4:16.18 | 147476 | 166693
10 | 37:02.44 | 4:38.65 | 166694 | 187608
11 | 41:41.34 | 5:15.11 | 187609 | 211244
12 | 46:56.45 | 4:32.08 | 211245 | 231652


Range status and errors

Selected range

Filename \\.PSF\.Home\Desktop\ RIP\Gianna Nannini\Grazie\Gianna Nannini - Grazie (+ Bonus Tracks).wav

Peak level 100.0 %
Range quality 100.0 %
Test CRC 0137BD4B
Copy CRC 0137BD4B
Copy OK

No errors occurred


AccurateRip summary

Track 1 not present in database
Track 2 not present in database
Track 3 not present in database
Track 4 not present in database
Track 5 not present in database
Track 6 not present in database
Track 7 not present in database
Track 8 not present in database
Track 9 not present in database
Track 10 not present in database
Track 11 not present in database
Track 12 not present in database

None of the tracks are present in the AccurateRip database

End of status report




Gianna Nannini on AvaxHome:

California (1979)
G. N. (1981)
Latin Lover (1982)
Puzzle (1984)
Tutto Live (1985)
Profumo (1986)
Malafemmina (1988)
Scandalo (1990)
X Forza E X Amore (1993)
Dispetto (1995)
Grazie (2006)
GiannaBest (2007) (MP3 only!)
Giannadream : Solo I Sogni Sono Veri (2009)