Subcategories

Gianna Nannini & The Primadonnas - Tutto Live (1985)

Posted By: olafweisse
Gianna Nannini & The Primadonnas - Tutto Live (1985)

Gianna Nannini & The Primadonnas - Tutto Live (1985)
EAC Rip | APE, IMG+CUE, LOG | 361 MB | MP3 CBR 320 Kbps | 136,5 MB | Complete Scans (300 dpi) | 32,9 MB
Rock | Label: PolyGram | Catalog Number: 825 357-2 | Time: 64:32 | RAR | RS.com

Очень приличный концертник итальянской рок-примадонны. Некоторые вещи мне кажутся даже лучше, чем в оригинале…

Tracklisting:

1 Intro (1:37)
2 Kolossal (3:47)
3 Sognami (4:42)
4 Autostrada (4:09)
5 Occhi Aperti (3:56)
6 Bla Bla (4:37)
7 Amore Amore (5:09)
8 Wagon-Lits (3:21)
9 Ragazzo Dell'Europa (2:24)
10 California (4:08)
11 Fotoromanza (4:51)
12 Bi-Bip (7:39)
13 America (5:07)
14 Latin Lover (4:16)
15 Primadonna (4:49)


Prodotto da Conny Plank e Gianna Nannini



Exact Audio Copy V0.99 prebeta 4 from 23. January 2008

EAC extraction logfile from 2. October 2008, 20:13

Gianna Nannini & The Primadonnas / Tutto Live

Used drive : Optiarc DVD RW AD-7630A Adapter: 0 ID: 1

Read mode : Secure
Utilize accurate stream : Yes
Defeat audio cache : Yes
Make use of C2 pointers : No

Read offset correction : 48
Overread into Lead-In and Lead-Out : No
Fill up missing offset samples with silence : Yes
Delete leading and trailing silent blocks : No
Null samples used in CRC calculations : Yes
Used interface : Native Win32 interface for Win NT & 2000

Used output format : Monkey's Audio Lossless Encoder
Selected bitrate : High Lossless Compression
Quality : High
Add ID3 tag : Yes
Command line compressor : C:\Program Files\Monkey's Audio\Monkey's Audio.exe


TOC of the extracted CD

Track | Start | Length | Start sector | End sector
––––––––––––––––––––––––––––-
1 | 0:00.33 | 1:37.07 | 33 | 7314
2 | 1:37.40 | 3:47.08 | 7315 | 24347
3 | 5:24.48 | 4:42.32 | 24348 | 45529
4 | 10:07.05 | 4:09.08 | 45530 | 64212
5 | 14:16.13 | 3:56.57 | 64213 | 81969
6 | 18:12.70 | 4:37.00 | 81970 | 102744
7 | 22:49.70 | 5:09.13 | 102745 | 125932
8 | 27:59.08 | 3:21.17 | 125933 | 141024
9 | 31:20.25 | 2:24.03 | 141025 | 151827
10 | 33:44.28 | 4:08.40 | 151828 | 170467
11 | 37:52.68 | 4:51.42 | 170468 | 192334
12 | 42:44.35 | 7:39.63 | 192335 | 226822
13 | 50:24.23 | 5:07.65 | 226823 | 249912
14 | 55:32.13 | 4:16.20 | 249913 | 269132
15 | 59:48.33 | 4:49.52 | 269133 | 290859


Range status and errors

Selected range

Filename \\.PSF\.Home\Desktop\ RIP\Gianna Nannini\Tutto Live\Gianna Nannini & The Primadonnas - Tutto Live.wav

Peak level 86.7 %
Range quality 100.0 %
Test CRC 907DEB4A
Copy CRC 907DEB4A
Copy OK

No errors occurred


AccurateRip summary

Track 1 accurately ripped (confidence 4) [2C6C4EDD]
Track 2 accurately ripped (confidence 4) [519950E1]
Track 3 accurately ripped (confidence 4) [82FC3041]
Track 4 accurately ripped (confidence 4) [3330B0DE]
Track 5 accurately ripped (confidence 4) [B4839E89]
Track 6 accurately ripped (confidence 4) [A12CC08C]
Track 7 accurately ripped (confidence 4) [3BF8A5EF]
Track 8 accurately ripped (confidence 4) [A1EB47C9]
Track 9 accurately ripped (confidence 4) [E6397E5A]
Track 10 accurately ripped (confidence 4) [751677BD]
Track 11 accurately ripped (confidence 4) [6A767EF6]
Track 12 accurately ripped (confidence 4) [0D17F40B]
Track 13 accurately ripped (confidence 4) [D655FEE0]
Track 14 accurately ripped (confidence 4) [273CFD92]
Track 15 accurately ripped (confidence 4) [6891C369]

All tracks accurately ripped

End of status report





Gianna Nannini on AvaxHome:

California (1979)
G. N. (1981)
Latin Lover (1982)
Puzzle (1984)
Tutto Live (1985)
Profumo (1986)
Malafemmina (1988)
Scandalo (1990)
X Forza E X Amore (1993)
Dispetto (1995)
Grazie (2006)
GiannaBest (2007) (MP3 only!)
Giannadream : Solo I Sogni Sono Veri (2009)