Tags
Language
Tags

Gidon Kremer, Yulianna Avdeeva, Giedré Dirvanauskaité - Mieczysław Weinberg: Chamber Music (2019)

Posted By: ArlegZ
Gidon Kremer, Yulianna Avdeeva, Giedré Dirvanauskaité - Mieczysław Weinberg: Chamber Music (2019)

Gidon Kremer, Yulianna Avdeeva, Giedré Dirvanauskaité - Mieczysław Weinberg: Chamber Music (2019)
EAC | FLAC | Image (Cue & Log) ~ 240 Mb | Total time: 58:49 | Scans included
Classical | Label: Deutsche Grammophon | # 483 7522 | Recorded: 2018

Following the success of the Weinberg Symphonies 2 & 21 with conductor Mirga Grazinyte-Tyla, Deutsche Grammophon now features chamber music by Mieczysław Weinberg under the direction of Gidon Kremer.
Included among others are his “Three Pieces for Violin and Piano”, which Weinberg completed in the winter of 1934/35 when he was only 15 years old and had not yet received any compositional training. What connects Weinberg’s works is not only their compositional perfection, but above all their constant commitment to beauty. It is a confession that in Weinberg’s music is above all pain and suffering.

Performer:
Gidon Kremer, violin
Yulianna Avdeeva, piano
Giedré Dirvanauskaité, cello (4-7)

Track List:
3 Pieces for Violin and Piano
01. 1. Nocturne. Moderato
02. 2. Scherzo. Allegro
03. 3. Sen o lalce. Moderato
Trio for Piano, Violin and Cello in A minor Op. 24
04. 1. Praeludium and Aria. Larghetto
05. 2. Toccata. Allegro moderato
06. 3. Poem. Moderato
07. 4. Finale. Allegro moderato
Sonata for Violin and Piano No. 6 Op. 136bis
08. 1. Moderato
09. 2. Adagio
10. 3. Moderato - Adagio


Exact Audio Copy V1.6 from 23. October 2020

EAC extraction logfile from 12. July 2021, 11:27

Gidon Kremer, Giedre Dirvanauskaite & Yulianna Avdeeva / Weinberg: Chamber Music

Used drive : HL-DT-STDVDRAM GH24NSD5 Adapter: 1 ID: 0

Read mode : Secure
Utilize accurate stream : Yes
Defeat audio cache : Yes
Make use of C2 pointers : No

Read offset correction : 6
Overread into Lead-In and Lead-Out : No
Fill up missing offset samples with silence : Yes
Delete leading and trailing silent blocks : No
Null samples used in CRC calculations : Yes
Used interface : Native Win32 interface for Win NT & 2000

Used output format : User Defined Encoder
Selected bitrate : 1024 kBit/s
Quality : High
Add ID3 tag : No
Command line compressor : C:\Program Files (x86)\Exact Audio Copy\FLAC\FLAC.EXE
Additional command line options : -6 -V -T "ARTIST=%artist%" -T "TITLE=%title%" -T "ALBUM=%albumtitle%" -T "DATE=%year%" -T "TRACKNUMBER=%tracknr%" -T "GENRE=%genre%" -T "COMMENT=%comment%" -T "BAND=%albuminterpret%" -T "ALBUMARTIST=%albuminterpret%" -T "COMPOSER=%composer%" %haslyrics%–tag-from-file=LYRICS="%lyricsfile%"%haslyrics% -T "DISCNUMBER=%cdnumber%" -T "TOTALDISCS=%totalcds%" -T "TOTALTRACKS=%numtracks%" %hascover%–picture="%coverfile%"%hascover% %source% -o %dest%


TOC of the extracted CD

Track | Start | Length | Start sector | End sector
––––––––––––––––––––––––––––-
1 | 0:00.00 | 6:33.37 | 0 | 29511
2 | 6:33.37 | 2:19.01 | 29512 | 39937
3 | 8:52.38 | 6:11.62 | 39938 | 67824
4 | 15:04.25 | 5:38.16 | 67825 | 93190
5 | 20:42.41 | 4:06.27 | 93191 | 111667
6 | 24:48.68 | 9:43.21 | 111668 | 155413
7 | 34:32.14 | 10:01.41 | 155414 | 200529
8 | 44:33.55 | 6:27.72 | 200530 | 229626
9 | 51:01.52 | 2:55.65 | 229627 | 242816
10 | 53:57.42 | 4:49.54 | 242817 | 264545


Range status and errors

Selected range

Filename I:\Rips\Weinberg - Chamber Music - Kremer, Avdeeva, Dirvanauskaité\Gidon Kremer, Giedre Dirvanauskaite & Yulianna Avdeeva - Weinberg- Chamber Music.wav

Peak level 95.7 %
Extraction speed 7.2 X
Range quality 100.0 %
Test CRC F21BD14E
Copy CRC F21BD14E
Copy OK

No errors occurred


AccurateRip summary

Track 1 not present in database
Track 2 not present in database
Track 3 not present in database
Track 4 not present in database
Track 5 not present in database
Track 6 not present in database
Track 7 not present in database
Track 8 not present in database
Track 9 not present in database
Track 10 not present in database

None of the tracks are present in the AccurateRip database

End of status report

–– CUETools DB Plugin V2.1.6

[CTDB TOCID: OLFi6X80B4jChm_muATo2EyVuJ4-] found
Submit result: already submitted
Track | CTDB Status
1 | (20/20) Accurately ripped
2 | (20/20) Accurately ripped
3 | (20/20) Accurately ripped
4 | (20/20) Accurately ripped
5 | (20/20) Accurately ripped
6 | (20/20) Accurately ripped
7 | (20/20) Accurately ripped
8 | (20/20) Accurately ripped
9 | (20/20) Accurately ripped
10 | (20/20) Accurately ripped


==== Log checksum E550C3F67484A5A253999FFAFF14A1053C9B03A6713A7DD36EA41754D38B7FDE ====

Gidon Kremer, Yulianna Avdeeva, Giedré Dirvanauskaité - Mieczysław Weinberg: Chamber Music (2019)

Thanks to the original releaser