Giulio Tampalini - The Spanish Guitar (2017)

Posted By: SERTiL
Giulio Tampalini - The Spanish Guitar (2017)

Giulio Tampalini - The Spanish Guitar
Classical | WEB FLAC (tracks) & front cover | 60:37 min | 2228 MB
Label: WM Italy | Tracks: 14 | Rls.date: 2017

It is indeed a pleasure to accept a kind invitation from the distinguished guitarist Giulio Tampalini to write a short commentary on Toccata para guitarra, one of my father's works that is most beloved to me for a series of circumstances. Toccata is one of the most difficult works ever written for the repertoire of solo guitar, but it stands as a forerunner of the guitar technique which characterizes Joaquín Rodrigo, considering that he is seen as a great guitarist although he never actually played the guitar. The work, written in 1933, was premiered 66 years later in 2006 by Marcin Dylla, symbolizing something like the Sleeping Beauty of the guitar. However, its composer was not sleeping all that time, and while he was not able to recover the only copy for guitarist that he delivered initially, he did preserve his original manuscript in Braille. And it occurred to him that it might be best used by turning it into the first movement of the magnificent Concierto de Estío for violin and orchestra, which indeed he composed and premiered in 1943. The work that first appeared to be unplayable due to the difficulty of its guitar language and the limited number of guitarists at the time is at present, thanks to the advances in technique achieved by today's numerous guitarists, performed triumphantly throughout the world. It is a great satisfaction and joy to welcome this new recording by Giulio Tampalini, which will undoubtedly constitute a step forward for the performer and for the work of Joaquin Rodrigo.

Tracklist:

1.Mateo Albéniz (1755-1831)
Sonata in Re maggiore

2.Joaquín Rodrigo (1901-1999)
Toccata para guitarra

3.Federico Mompou (1893-1987)
Canción y danza n. 6
4.Enrique Granados (1867-1916)
Valses poéticos op. 10
(Introducción, Melódico, Tiempo de vals noble, Tiempo de vals lento, Allegro humóristico, Allegretto-elegante, Quasi ad libitum-sentimental, Vivo, Presto, Tiempo del primo vals)

Vicente Asencio (1908-1979)
Suite de homenajes
5. Sonatina (a Domenico Scarlatti)
6. Elegia (a Manuel de Falla)
7. Tango de la casada infiel (a Federico Garcìa Lorca)

Manuel de Falla (1876-1946)
8. Danza da La vida breve

Francisco Tárrega (1852-1909)
9. Capricho Árabe
10. Recuerdos de la Alhambra

Isaac Albéniz (1860-1909)
11. Asturias (Leyenda) dalla Suite Española op. 47

Regino Sainz de la Maza
12. Rondeña
13. Petenera
14. Zapateado

PERFORMER: auCDtect Task Manager, ver. 1.6.0 RC1 build 1.6.0.1
Copyright © 2008-2010 y-soft. All rights reserved

ANALYZER: auCDtect: CD records authenticity detector, version 0.8.2
Copyright © 2004 Oleg Berngardt. All rights reserved.
Copyright © 2004 Alexander Djourik. All rights reserved.


FILE: 14. Zapateado.flac
Size: 11381182 Hash: 55AC5946D76360FFC9238362C4D63478 Accuracy: -m0
Conclusion: CDDA 100%
Signature: 1E328CE64E6AD150CAD6944933FACBEE1E57FB76
FILE: 13. Petenera.flac
Size: 8906321 Hash: EAB4AAD58C3E194428BE52D66C012592 Accuracy: -m0
Conclusion: CDDA 100%
Signature: 1D53E5F04C2D9B0F1C460F2D1562485754D91E4B
FILE: 12. Rondeña.flac
Size: 15748870 Hash: 9ACA3FBE08591CFF52C37D654B3DDCB4 Accuracy: -m0
Conclusion: CDDA 100%
Signature: D9B3D5DE6746CCB76195C5490B678C73D0F106E2
FILE: 11. Suite Española, No. 1, Op. 47 V. Asturias (Leyenda).flac
Size: 22272247 Hash: 850FCA0B3A1E141350973A8DDF3F6F90 Accuracy: -m0
Conclusion: CDDA 100%
Signature: 65E4267D1C00EC372AAB19E361FAD37FFA582A14
FILE: 10. Recuerdos de la Alhambra.flac
Size: 22235062 Hash: 2B369F5FB9E9F7343F9EB55316DC4D27 Accuracy: -m0
Conclusion: CDDA 100%
Signature: 613CD43DB9165E2008932D2F7EEB30A604A4172A
FILE: 09. Capricho Árabe.flac
Size: 16543233 Hash: 8D9B59E512FBC022995665710A1846E5 Accuracy: -m0
Conclusion: CDDA 100%
Signature: E8751E28DCC978C38DD63F3D3579201FF417F0DF
FILE: 08. La vida breve Danza Española No. 1 (Arr. for Guitar).flac
Size: 15846249 Hash: D122EAE4CF164C9E687809248328EF47 Accuracy: -m0
Conclusion: CDDA 100%
Signature: DC516A82652469BFB7EAF74D66F44AD24B1F972E
FILE: 07. Suite de homenajes III. Tango de la casada infiel (a Federico Garcia Lorca).flac
Size: 9885316 Hash: 75FB080E34AA326BFE00ABFC27A18752 Accuracy: -m0
Conclusion: CDDA 100%
Signature: 7FEEDAFB765E4A48C35D1BC99C11C44951C98BE6
FILE: 06. Suite de homenajes II. Elegia (a Manuel de Falla).flac
Size: 5759545 Hash: 13DD9EE844FE6000EEADF2DBEA0F517B Accuracy: -m0
Conclusion: CDDA 100%
Signature: 3CC75187AB00C8591E9D1580892364E7C0D2F739
FILE: 05. Suite de homenajes I. Sonatina (a Domenico Scarlatti).flac
Size: 11909053 Hash: 359ED3F83393A78967036B140C4294F8 Accuracy: -m0
Conclusion: CDDA 94%
Signature: 636D75BBAD40CA71D0FD9FE888379321E6E14DA6
FILE: 04. Valses poéticos Op. 10 (Arr. for Guitar).flac
Size: 44565904 Hash: 53504FE321097FFA673D6B8814DC2488 Accuracy: -m0
Conclusion: CDDA 100%
Signature: D5E2DA3C54E541E17506E96DBC3BF1CC8248CD8D
FILE: 03. Canción y danza No. 6 (Arr. for Guitar).flac
Size: 12206098 Hash: A53CC2D209EB2433B475001B8452647D Accuracy: -m0
Conclusion: CDDA 100%
Signature: 23E69CD3CBAE6FC36B8778A4A32C6C7E455E828C
FILE: 02. Toccata para guitarra.flac
Size: 29077449 Hash: DF3BC79F02B9CD4858DBFE5479DF1478 Accuracy: -m0
Conclusion: CDDA 100%
Signature: 5F3979E2EA5C08033975C8339D222BBC7B23F94E
FILE: 01. Sonata in D Major (Arr. for Guitar).flac
Size: 13485971 Hash: E43B2DA9CC8E4A85E9A49ECC4364D220 Accuracy: -m0
Conclusion: CDDA 99%
Signature: 78F4FF51F911939D54973D1CCA67D05AF5B93DDB

foobar2000 1.3.7 / Dynamic Range Meter 1.1.1
log date: 2017-10-23 20:06:45

––––––––––––––––––––––––––––––––––––––––
Analyzed: Giulio Tampalini / The Spanish Guitar
––––––––––––––––––––––––––––––––––––––––

DR Peak RMS Duration Track
––––––––––––––––––––––––––––––––––––––––
DR13 -5.41 dB -22.22 dB 3:12 01-Sonata in D Major (Arr. for Guitar)
DR16 -2.00 dB -23.05 dB 7:02 02-Toccata para guitarra
DR15 -2.98 dB -22.50 dB 3:07 03-Canción y danza No. 6 (Arr. for Guitar)
DR15 -3.52 dB -23.04 dB 11:56 04-Valses poéticos Op. 10 (Arr. for Guitar)
DR14 -5.88 dB -24.10 dB 3:24 05-Suite de homenajes: I. Sonatina (a Domenico Scarlatti)
DR14 -4.92 dB -25.84 dB 1:51 06-Suite de homenajes: II. Elegia (a Manuel de Falla)
DR13 -2.00 dB -19.45 dB 2:32 07-Suite de homenajes: III. Tango de la casada infiel (a Federico Garcia Lorca)
DR15 -1.50 dB -20.30 dB 3:38 08-La vida breve: Danza Española No. 1 (Arr. for Guitar)
DR14 -3.20 dB -23.48 dB 4:40 09-Capricho Árabe
DR13 -8.23 dB -25.51 dB 5:22 10-Recuerdos de la Alhambra
DR13 -2.42 dB -19.52 dB 5:38 11-Suite Española, No. 1, Op. 47: V. Asturias (Leyenda)
DR15 -2.50 dB -20.25 dB 3:37 12-Rondeña
DR13 -3.45 dB -20.16 dB 2:15 13-Petenera
DR13 -3.20 dB -19.82 dB 2:31 14-Zapateado
––––––––––––––––––––––––––––––––––––––––

Number of tracks: 14
Official DR value: DR14

Samplerate: 44100 Hz
Channels: 2
Bits per sample: 16
Bitrate: 595 kbps
Codec: FLAC
================================================================================


Thanks to the Original customer.