Subcategories

Glass, Kancheli, Tuur - Music for Violin and Piano (2014)

Posted By: peotuvave
Glass, Kancheli, Tuur - Music for Violin and Piano (2014)

Glass, Kancheli, Tuur - Music for Violin and Piano (2014)
EAC Rip | Flac (Image + cue + log) | 1 CD | Full Scans | 235 MB
Genre: Classical | Label: Brilliant Classics | Catalog Number: 94814

Music for violin and piano by three composers from three different countries, who have a fascination with minimal music, the music where repetition, silence and meditation are predominant, music for a different mindset. This new recording presents the important Violin Sonata by Philip Glass, one of the pioneers and icons of Minimal Music, “Time…and again” by the Russian mystic Giya Kancheli, and “Converso” by Erkki Tüür, one of the Baltic minimalists, in the spirit of Arvo Pärt.

Played with great subtlety by two Italians, violinist Andrea Cortesi and pianist Marco Venturi.

New recording, booklet contains liner notes and artist biographies.

Tracklisting:

Philip Glass - Sonata for Violin and Piano:
1. I. Movement I (2008)
2. II. Movement II (2008)
3. III. Movement III (2008)

Giya Kancheli:
4. Time … and Again (1996)

Erkki-Sven Tuur
5. Conversio (1994)

Exact Audio Copy V1.0 beta 4 from 7. December 2014

EAC extraction logfile from 14. January 2015, 22:08

Glass, Kancheli, Tuur / Music for violin and Piano

Used drive : TSSTcorpDVDWBD TS-LB23A Adapter: 1 ID: 0

Read mode : Secure
Utilize accurate stream : Yes
Defeat audio cache : Yes
Make use of C2 pointers : No

Read offset correction : 6
Overread into Lead-In and Lead-Out : No
Fill up missing offset samples with silence : Yes
Delete leading and trailing silent blocks : No
Null samples used in CRC calculations : Yes
Used interface : Native Win32 interface for Win NT & 2000

Used output format : User Defined Encoder
Selected bitrate : 128 kBit/s
Quality : High
Add ID3 tag : Yes
Command line compressor : C:\Program Files (x86)\Exact Audio Copy\Flac\flac.exe
Additional command line options : -V -8 %source%


TOC of the extracted CD

Track | Start | Length | Start sector | End sector
––––––––––––––––––––––––––––-
1 | 0:00.00 | 7:27.33 | 0 | 33557
2 | 7:27.33 | 7:53.16 | 33558 | 69048
3 | 15:20.49 | 7:06.23 | 69049 | 101021
4 | 22:26.72 | 24:27.69 | 101022 | 211115
5 | 46:54.66 | 10:09.74 | 211116 | 256864


Range status and errors

Selected range

Filename D:\Downloads\Glass, Kancheli, Tuur - Music for violin and Piano.wav

Peak level 89.4 %
Extraction speed 1.7 X
Range quality 100.0 %
Test CRC 442BA0C2
Copy CRC 442BA0C2
Copy OK

No errors occurred


AccurateRip summary

Track 1 not present in database
Track 2 not present in database
Track 3 not present in database
Track 4 not present in database
Track 5 not present in database

None of the tracks are present in the AccurateRip database

End of status report

==== Log checksum DF125E500586C66497DE4C63D5D389B67495D90DAC52C2E63177E4C1D022B5A7 ====



Thanks to the original releaser
Download:

Nitroflare