Subcategories

Glen Campbell - Adiós (2017)

Posted By: SERTiL
Glen Campbell - Adiós (2017)

Glen Campbell - Adiós
EAC Rip | FLAC (tracks)+cue, log, m3u, front cover | 37:13 min | 227 MB
Label: UMe – B0026502-02 | Tracks: 12 | Rls.date: 2017
Country, Singer-Songwriter

Glen Campbell's final studio album Adiós was recorded at Station West in Nashville following Glen's 'Goodbye Tour.' Produced by Glen's longtime banjo player and friend Carl Jackson, the album features Glen singing four Jimmy Webb songs that Glen never recorded but always loved, including the title track. Adios features songs written by Roger Miller, Bob Dylan, Dickey Lee, Jerry Reed, Fred Neil, and includes a duet with Willie Nelson - 'Funny How Time Slips Away' - and special guest Vince Gill on harmony vocals in 'Am I All Alone (Or Is It Only Me)'. The album is a true family affair as Glen's daughter Ashley and sons Cal and Shannon, all perform on the record.

TRACKLIST
1. Glen Campbell – Everybody's Talkin' (02:56)
2. Glen Campbell – Just Like Always (03:48)
3. Glen Campbell & Willie Nelson – Funny How Time Slips Away (03:31)
4. Glen Campbell – Arkansas Farmboy (03:31)
5. Roger Miller – Am I All Alone (Or Is It Only Me) [Intro] (00:45)
6. Glen Campbell & Vince Gill – Am I All Alone (Or Is It Only Me) (02:44)
7. Glen Campbell – It Won't Bring Her Back (03:31)
8. Glen Campbell – Don't Think Twice, It's All Right (02:34)
9. Glen Campbell – She Thinks I Still Care (03:55)
10. Glen Campbell – Postcard From Paris (04:32)
11. Glen Campbell – A Thing Called Love (02:19)
12. Glen Campbell – Adiós (03:04)

Exact Audio Copy V1.1 from 23. June 2015

EAC extraction logfile from 3. July 2017, 12:06

Glen Campbell / Adiós

Used drive : TSSTcorpDVD+-RW SU-208GB Adapter: 1 ID: 0

Read mode : Secure
Utilize accurate stream : Yes
Defeat audio cache : Yes
Make use of C2 pointers : No

Read offset correction : 6
Overread into Lead-In and Lead-Out : No
Fill up missing offset samples with silence : Yes
Delete leading and trailing silent blocks : No
Null samples used in CRC calculations : Yes
Used interface : Native Win32 interface for Win NT & 2000
Gap handling : Appended to previous track

Used output format : User Defined Encoder
Selected bitrate : 1024 kBit/s
Quality : High
Add ID3 tag : No
Command line compressor : C:\Program Files (x86)\Exact Audio Copy\Flac\flac.exe
Additional command line options : -8 -e -p -V -T "ARTIST=%artist%" -T "TITLE=%title%" -T "ALBUM=%albumtitle%" -T "DATE=%year%" -T "TRACKNUMBER=%tracknr%" -T "GENRE=%genre%" -T "PERFORMER=%albuminterpret%" -T "COMPOSER=%composer%" %haslyrics%–tag-from-file=LYRICS="%lyricsfile%"%haslyrics% -T "ALBUMARTIST=%albumartist%" -T "DISCNUMBER=%cdnumber%" -T "TOTALDISCS=%totalcds%" -T "TOTALTRACKS=%numtracks%" -T "COMMENT=%comment%" %source% -o %dest%


TOC of the extracted CD

Track | Start | Length | Start sector | End sector
––––––––––––––––––––––––––––-
1 | 0:00.00 | 2:56.42 | 0 | 13241
2 | 2:56.42 | 3:48.43 | 13242 | 30384
3 | 6:45.10 | 3:32.13 | 30385 | 46297
4 | 10:17.23 | 3:31.32 | 46298 | 62154
5 | 13:48.55 | 0:45.33 | 62155 | 65562
6 | 14:34.13 | 2:44.26 | 65563 | 77888
7 | 17:18.39 | 3:31.42 | 77889 | 93755
8 | 20:50.06 | 2:34.40 | 93756 | 105345
9 | 23:24.46 | 3:56.17 | 105346 | 123062
10 | 27:20.63 | 4:32.74 | 123063 | 143536
11 | 31:53.62 | 2:19.68 | 143537 | 154029
12 | 34:13.55 | 3:05.69 | 154030 | 167973


Track 1

Filename S:\Music\Glen Campbell - Adios (2017) [Flac]\01 Everybody's Talkin'.wav

Pre-gap length 0:00:02.00

Peak level 100.0 %
Extraction speed 2.7 X
Track quality 100.0 %
Test CRC 270BECD7
Copy CRC 270BECD7
Track not present in AccurateRip database
Copy OK

Track 2

Filename S:\Music\Glen Campbell - Adios (2017) [Flac]\02 Just Like Always.wav

Peak level 100.0 %
Extraction speed 3.0 X
Track quality 100.0 %
Test CRC F7A1A722
Copy CRC F7A1A722
Track not present in AccurateRip database
Copy OK

Track 3

Filename S:\Music\Glen Campbell - Adios (2017) [Flac]\03 Funny How Time Slips Away [with Willie Nelson].wav

Peak level 100.0 %
Extraction speed 2.5 X
Track quality 99.9 %
Test CRC 46EEC8F9
Copy CRC 46EEC8F9
Track not present in AccurateRip database
Copy OK

Track 4

Filename S:\Music\Glen Campbell - Adios (2017) [Flac]\04 Arkansas Farmboy.wav

Peak level 100.0 %
Extraction speed 3.4 X
Track quality 100.0 %
Test CRC BF9111B9
Copy CRC BF9111B9
Track not present in AccurateRip database
Copy OK

Track 5

Filename S:\Music\Glen Campbell - Adios (2017) [Flac]\05 Am I All Alone (Or Is It Only Me) [Intro by Roger Miller].wav

Peak level 99.4 %
Extraction speed 2.2 X
Track quality 100.0 %
Test CRC 3D6207DE
Copy CRC 3D6207DE
Track not present in AccurateRip database
Copy OK

Track 6

Filename S:\Music\Glen Campbell - Adios (2017) [Flac]\06 Am I All Alone (Or Is It Only Me) [with Vince Gill].wav

Peak level 100.0 %
Extraction speed 2.6 X
Track quality 99.9 %
Test CRC B1DA18A7
Copy CRC B1DA18A7
Track not present in AccurateRip database
Copy OK

Track 7

Filename S:\Music\Glen Campbell - Adios (2017) [Flac]\07 It Won't Bring Her Back.wav

Peak level 100.0 %
Extraction speed 3.6 X
Track quality 100.0 %
Test CRC 01B79D69
Copy CRC 01B79D69
Track not present in AccurateRip database
Copy OK

Track 8

Filename S:\Music\Glen Campbell - Adios (2017) [Flac]\08 Don't Think Twice, It's All Right.wav

Peak level 100.0 %
Extraction speed 3.7 X
Track quality 100.0 %
Test CRC 6E875045
Copy CRC 6E875045
Track not present in AccurateRip database
Copy OK

Track 9

Filename S:\Music\Glen Campbell - Adios (2017) [Flac]\09 She Thinks I Still Care.wav

Peak level 100.0 %
Extraction speed 4.1 X
Track quality 100.0 %
Test CRC 01410D0E
Copy CRC 01410D0E
Track not present in AccurateRip database
Copy OK

Track 10

Filename S:\Music\Glen Campbell - Adios (2017) [Flac]\10 Postcard From Paris.wav

Peak level 100.0 %
Extraction speed 4.2 X
Track quality 100.0 %
Test CRC 4698DF32
Copy CRC 4698DF32
Track not present in AccurateRip database
Copy OK

Track 11

Filename S:\Music\Glen Campbell - Adios (2017) [Flac]\11 A Thing Called Love.wav

Peak level 100.0 %
Extraction speed 3.9 X
Track quality 100.0 %
Test CRC 5D2A9BA8
Copy CRC 5D2A9BA8
Track not present in AccurateRip database
Copy OK

Track 12

Filename S:\Music\Glen Campbell - Adios (2017) [Flac]\12 Adiós.wav

Peak level 100.0 %
Extraction speed 3.2 X
Track quality 99.9 %
Test CRC 077BA23B
Copy CRC 077BA23B
Track not present in AccurateRip database
Copy OK


None of the tracks are present in the AccurateRip database

No errors occurred

End of status report

–– CUETools DB Plugin V2.1.6

[CTDB TOCID: biEpTqLPGssjkhgDRO8SNXOfQLw-] found
Submit result: biEpTqLPGssjkhgDRO8SNXOfQLw- has been confirmed
Track | CTDB Status
1 | (19/19) Accurately ripped
2 | (19/19) Accurately ripped
3 | (19/19) Accurately ripped
4 | (19/19) Accurately ripped
5 | (19/19) Accurately ripped
6 | (19/19) Accurately ripped
7 | (19/19) Accurately ripped
8 | (19/19) Accurately ripped
9 | (19/19) Accurately ripped
10 | (19/19) Accurately ripped
11 | (19/19) Accurately ripped
12 | (19/19) Accurately ripped


==== Log checksum ECCA4B72378B33CB761C3018381749AD024CF0981C65F74747BE15736B9B34CD ====


Thanks to the Original customer.