Subcategories

Glenn Gould - Johann Sebastian Bach: The Art of Fugue (2002)

Posted By: Designol
Glenn Gould - Johann Sebastian Bach: The Art of Fugue (2002)

Glenn Gould - Johann Sebastian Bach: Die Kunst der Fuge (The Art of Fugue) (2002)
EAC | FLAC | Image (Cue&Log) ~ 340 Mb (incl 5%) | Mp3 (CBR320) ~ 198 Mb (incl 5%) | Scans included
Genre: Classical | Label: Sony Classical | # SMK87759 | Time: 01:09:36

What you will find on this disc is A) contrapunctus I-IX played on two different organs in 1962; B) contrapunctus I II & IV from a1981 TV broadcast; C) contrapunctus IX XI & XIII in mono from a radio broadcast in 1967; D) the unfinished contrapunctus XIV from what may or may not be the same TV broadcast as B); and as a final filler E) a prelude and fugue on the name BACH from a studio recording in 1980. Items B)-E) are given on the piano.

Gould's organ renderings ran into critical flak at the time, and whether for that reason or because organ-playing aggravated a shoulder condition that the maestro suffered from he never completed the project. The sound of the piano is a little below standard in C), with some background hiss and a slightly emaciated tone, but even it is not really bad, B) and D) are better, and E) better still sound-wise. The sound of the organs has been criticised, but I do not criticise it and indeed it suits me very well. Nothing in the sound-quality from start to finish interferes in any way with my appreciation of Gould's wonderful, visionary and unique Bach-playing.

This disc does not offer you the complete Art of Fugue, so anyone who wants what's here is going to want it for something special in the performance. Gould is always special I guess, but not special in ways that suit everyone. My feeling is that if you are of the school that wants the Art of Fugue played `expressively' you can probably leave this offering alone. Once Gould sets a tempo he sticks to it unflinchingly without rubato, and except for some build-up in the tone as D) progresses there is a very restricted range of dynamics within each piece, although the individual pieces are strongly contrasted in respect of both volume-level and pace. Interestingly, in those numbers which he gives in two different performances, he takes a markedly different approach each time. Conrapunctus II IV and IX are very much faster in the piano version than on the organ, but contrapunctus I on the piano is taken very slowly indeed, lasting nearly twice as long as in the organ account. It is a matter of one's own concept of the work basically. For me, the Art of Fugue is the ultimate in abstract `absolute' music. It is a monument of remote sublimity like pure mathematics or like the stars in the sky, and it is just there for us to wonder at and does not reach out to us or `express' anything. The player's task is to convey its grandeur, and for me Gould does that as no other version, (on any instruments whatsoever - Bach specifies none) has ever done for me, and I feel this most acutely in his much-criticised organ renderings. The organs he uses are not giants, and there is only limited use of the pedals. He uses mainly a detached fingering, although embracing a more legato style in contrapunctus VI. However it stands to reason that the parts in long sustained notes do not admit of the detached treatment, and I love Gould's selection of strongly contrasted stops to assist clarity further. These are the means he adopts. What these means are in furtherance of is an impression of utter grandeur in the sublime march of Bach's polyphony. It is even a privilege to be shown how this grandeur can be viewed from startlingly different angles in his alternative interpretations of 4 of the fugues.

The last fugue from the Art, the unfinished contrapunctus XIV, is taken at a very slow pace and ends abruptly where the dying composer left it. In the normal way of things I detest this procedure - whatever Bach intended it wasn't that, and in a composition that is the ne plus ultra of method many competent musicians have supplied conclusions that must, in the very nature of the case, approximate to what Bach himself would have done. However this was a television performance, and I gather that the camera was made to freeze at this point with Gould's right hand poised dramatically in mid-air. Gould, who kicked Ravel's piano transcription of La Valse into touch and wrote his own, is having none of that when it comes to Bach, and under the circumstances I stifle my own normal reaction to this abrupt hiatus.

One of the most extraordinary things about Bach is how popular he manages to be for all his seeming severity. The Art of Fugue is innocent of the lyricism that was also part of Bach's infinite musical gift, it makes no compromises with us, but I would say to newcomers to the work that Gould's accounts, partial as they are, would be the best place to start to know this unique and towering masterpiece. It is not any indivisible entity in any case. Better, to start with, to hear some of it presented like this than the entire set in many another, perhaps indeed in any other, version.

Review by DAVID BRYSON, Amazon.com

Glenn Gould - Johann Sebastian Bach: The Art of Fugue (2002)



Glenn Gould - Johann Sebastian Bach: The Art of Fugue (2002)



Tracklist:

Die Kunst der Fuge, BWV 1080:
01. Contrapunctus I (02:45)
02. Contrapunctus II (02:43)
03. Contrapunctus III (02:20)
04. Contrapunctus IV (03:21)
05. Contrapunctus V (02:53)
06. Contrapunctus VI (a 4, im Stile francese) (04:57)
07. Contrapunctus VII (a 4, per augmentationem et diminutionem) (03:48)
08. Contrapunctus VIII (a 3) (04:55)
09. Contrapunctus IX (a 4, alla duodecima) (03:08)
10. Contrapunctus I (04:50)
11. Contrapunctus II (02:16)
12. Contrapunctus IV (02:53)
13. Contrapunctus IX (a 4, alla duodecima) (02:32)
14. Contrapunctus XI (a 4) (05:50)
15. Contrapunctus XIII (a 3) (02:30)
16. Contrapunctus XIV (Fuga a 3 Soggetti) unfinished (12:26)

17. Prelude & Fugue in B-flat major on the name BACH, BWV 898 (05:22)


Exact Audio Copy V1.0 beta 3 from 29. August 2011

EAC extraction logfile from 18. March 2012, 14:37

Johann Sebastian Bach / Die Kunst der Fuge (The Art of Fugue) Excerpts, BWV 1080 (feat. organ & piano: Glenn Gould)

Used drive : HL-DT-STDVDRAM GT20N Adapter: 1 ID: 0

Read mode : Secure
Utilize accurate stream : Yes
Defeat audio cache : Yes
Make use of C2 pointers : No

Read offset correction : 667
Overread into Lead-In and Lead-Out : No
Fill up missing offset samples with silence : Yes
Delete leading and trailing silent blocks : No
Null samples used in CRC calculations : Yes
Used interface : Native Win32 interface for Win NT & 2000

Used output format : User Defined Encoder
Selected bitrate : 128 kBit/s
Quality : High
Add ID3 tag : No
Command line compressor : C:\Program Files\FLAC\flac.exe
Additional command line options : -V -8 -T "Date=%year%" -T "Genre=%genre%" %source%


TOC of the extracted CD

Track | Start | Length | Start sector | End sector
––––––––––––––––––––––––––––-
1 | 0:00.00 | 2:45.05 | 0 | 12379
2 | 2:45.05 | 2:43.52 | 12380 | 24656
3 | 5:28.57 | 2:20.35 | 24657 | 35191
4 | 7:49.17 | 3:21.65 | 35192 | 50331
5 | 11:11.07 | 2:53.38 | 50332 | 63344
6 | 14:04.45 | 4:57.55 | 63345 | 85674
7 | 19:02.25 | 3:48.30 | 85675 | 102804
8 | 22:50.55 | 4:55.32 | 102805 | 124961
9 | 27:46.12 | 3:08.45 | 124962 | 139106
10 | 30:54.57 | 4:50.60 | 139107 | 160916
11 | 35:45.42 | 2:16.45 | 160917 | 171161
12 | 38:02.12 | 2:53.43 | 171162 | 184179
13 | 40:55.55 | 2:32.50 | 184180 | 195629
14 | 43:28.30 | 5:50.15 | 195630 | 221894
15 | 49:18.45 | 2:30.02 | 221895 | 233146
16 | 51:48.47 | 12:26.25 | 233147 | 289121
17 | 64:14.72 | 5:22.03 | 289122 | 313274


Range status and errors

Selected range

Filename D:\Johann Sebastian Bach - Die Kunst der Fuge (The Art of Fugue) Excerpts, BWV 1080 (feat. organ & piano- Glenn Gould).wav

Peak level 99.9 %
Extraction speed 2.2 X
Range quality 100.0 %
Test CRC 977FE944
Copy CRC 977FE944
Copy OK

No errors occurred


AccurateRip summary

Track 1 accurately ripped (confidence 4) [0BADD25E] (AR v2)
Track 2 accurately ripped (confidence 4) [9E89092B] (AR v2)
Track 3 accurately ripped (confidence 4) [EDAAA55E] (AR v2)
Track 4 accurately ripped (confidence 4) [D4C414B3] (AR v2)
Track 5 accurately ripped (confidence 4) [1D8FC8E8] (AR v2)
Track 6 accurately ripped (confidence 4) [6EAB1679] (AR v2)
Track 7 accurately ripped (confidence 4) [C91F3464] (AR v2)
Track 8 accurately ripped (confidence 4) [D6398A2B] (AR v2)
Track 9 accurately ripped (confidence 4) [95155276] (AR v2)
Track 10 accurately ripped (confidence 4) [3974B1BC] (AR v2)
Track 11 accurately ripped (confidence 4) [67C3102C] (AR v2)
Track 12 accurately ripped (confidence 4) [413E0577] (AR v2)
Track 13 accurately ripped (confidence 4) [4F9BB91B] (AR v2)
Track 14 accurately ripped (confidence 4) [98D19D84] (AR v2)
Track 15 accurately ripped (confidence 4) [B695C910] (AR v2)
Track 16 accurately ripped (confidence 4) [F89FFB92] (AR v2)
Track 17 accurately ripped (confidence 4) [0C5D5BFE] (AR v2)

All tracks accurately ripped

End of status report

==== Log checksum FDB96998E365BCA018CE5113BFEA3EA3A9135D5B24AC9ED92F1ACA94F5716F72 ====

foobar2000 1.3.8 / Dynamic Range Meter 1.1.1
log date: 2015-11-14 02:29:51

––––––––––––––––––––––––––––––––––––––––
Analyzed: Johann Sebastian Bach / Glenn Gould - JS Bach - Die Kunst der Fuge (The Art of Fugue)
––––––––––––––––––––––––––––––––––––––––

DR Peak RMS Duration Track
––––––––––––––––––––––––––––––––––––––––
DR10 -3.84 dB -19.56 dB 2:45 01-Die Kunst der Fuge, BWV 1080: Contrapunctus I
DR10 -0.37 dB -14.21 dB 2:44 02-Die Kunst der Fuge, BWV 1080: Contrapunctus II
DR9 -6.62 dB -21.48 dB 2:20 03-Die Kunst der Fuge, BWV 1080: Contrapunctus III
DR10 -1.03 dB -15.59 dB 3:22 04-Die Kunst der Fuge, BWV 1080: Contrapunctus IV
DR11 -2.41 dB -16.94 dB 2:54 05-Die Kunst der Fuge, BWV 1080: Contrapunctus V
DR10 -0.20 dB -13.84 dB 4:58 06-Die Kunst der Fuge, BWV 1080: Contrapunctus VI (a 4, im Stile francese)
DR12 -2.91 dB -19.33 dB 3:48 07-Die Kunst der Fuge, BWV 1080: Contrapunctus VII (a 4, per augmentationem et d…
DR11 -2.02 dB -16.89 dB 4:55 08-Die Kunst der Fuge, BWV 1080: Contrapunctus VIII (a 3)
DR11 -0.20 dB -14.90 dB 3:09 09-Die Kunst der Fuge, BWV 1080: Contrapunctus IX (a 4, alla duodecima)
DR12 -1.61 dB -19.08 dB 4:51 10-Die Kunst der Fuge, BWV 1080: Contrapunctus I
DR10 -2.91 dB -15.81 dB 2:17 11-Die Kunst der Fuge, BWV 1080: Contrapunctus II
DR10 -4.16 dB -17.44 dB 2:54 12-Die Kunst der Fuge, BWV 1080: Contrapunctus IV
DR10 -4.91 dB -18.18 dB 2:33 13-Die Kunst der Fuge, BWV 1080: Contrapunctus IX (a 4, alla duodecima)
DR11 -4.47 dB -18.61 dB 5:50 14-Die Kunst der Fuge, BWV 1080: Contrapunctus XI (a 4)
DR11 -7.91 dB -22.16 dB 2:30 15-Die Kunst der Fuge, BWV 1080: Contrapunctus XIII (a 3)
DR13 -2.31 dB -21.59 dB 12:26 16-Die Kunst der Fuge, BWV 1080: Contrapunctus XIV (Fuga a 3 Soggetti) unfinished
DR12 -2.26 dB -16.69 dB 5:22 17-Prelude & Fugue in B-flat major on the name BACH, BWV 898
––––––––––––––––––––––––––––––––––––––––

Number of tracks: 17
Official DR value: DR11

Samplerate: 44100 Hz
Channels: 2
Bits per sample: 16
Bitrate: 592 kbps
Codec: FLAC
================================================================================

Glenn Gould - Johann Sebastian Bach: The Art of Fugue (2002)

Glenn Gould - Johann Sebastian Bach: The Art of Fugue (2002)

All thanks to original releaser - Don Prospero


Reinhard Goebel & Musica Antiqua Koln - J.S. Bach: Chamber Music (1983) Reissue 2005 [Gramophone Awards Collection]

Mischa Maisky & Martha Argerich - J.S. Bach: Three Sonatas for Violoncello and Piano, BWV 1027-1029 (1985)

András Schiff - J.S. Bach: 6 French Suites, Italian Concerto, French Overture (1993) 2CD

Johann Sebastian Bach - Mass In B minor, BWV 232 & Mass In F, BWV 233 (1993) 2CD
Bavarian Radio Symphony Orchestra, Bavarian Radio Chorus, conducted by Eugen Jochum
Munich Pro Arte Orchestra, Lausanne Pro Arte Chorus, conducted by Kurt Redel



Johann Sebastian Bach - Brandenburgische Konzerte; Orchestersuiten; Tripelkonzert für Flöte, Violine, Cembalo und Streicher (2002) 3 CD
Münchener Bach-Orchester, Karl Richter, conductor & harpsichord; Aurèle Nicolet, flute; Gerhart Hetzel, violin


Ketil Haugsand - Johann Sebastian Bach: Goldberg Variations, BWV 988 (2002)

Sviatoslav Richter - J.S. Bach: English Suite No. 3; Piano Concerto BWV 1052; Concerto for 2 Pianos BWV 1061 (2003)
Moscow Chamber Orchestra, conductor Rudolf Barshai, Anatoly Vedernikov, piano (BWV 1061)
USSR State Symphony Orchestra, conductor Kurt Sanderling (BWV1052)



Otto Klemperer - Otto Klemperer as a Bach-Wagner conductor: Live in Budapest 1948-1950 (2003)
Johann Sebastian Bach - Magnificat BWV 243, Brandenburg Concerto No.5 BWV 1050; Richard Wagner - Lohengrin, Die Meistersinger von Nurnberg


Gidon Kremer - J.S. Bach: The Sonatas and Partitas for Violin Solo (2005) 2CD

Kenneth Gilbert - Johann Sebastian Bach: Die Kunst der Fuge (1989)

Kenneth Gilbert - J.S. Bach: The Well-Tempered Clavier, Book I (2003) 2CD

Kenneth Gilbert - J.S. Bach: The Well-Tempered Clavier, Book II (2003) 2CD

Till Fellner - J.S. Bach: The Well-Tempered Clavier, Book I (2004) 2CD

Sviatoslav Richter - Johann Sebastian Bach: The Well-Tempered Clavier, Book 1 (2011) 2CD