Subcategories

Gloria Estefan - Gloria! (1998)

Posted By: v3122
Gloria Estefan - Gloria! (1998)

Gloria Estefan - Gloria! (1998)
EAC | Flac(Image) + Cue + Log & MP3 CBR 320Kbps
Epic, 489850 2 | ~ 552 or 170 Mb | Artwork(png) -> 120 Mb
Electronic, Latin, Pop, Housep

After spending some time exploring her Cuban roots and traditional pop, Gloria Estefan returned to straight-up dance-pop with the infectious Gloria! With its percolating disco beats and sunny melodies, the record recalls her glory days of the late '80s, but there is a stronger Latin rhythmic underpinning, which gives the music depth. Some of the songs themselves are slight, but most of them rank among her best uptempo songs and ballads, especially since her singing is better than ever. In fact, Gloria! proves that some dance-pop divas can get better – and more adventurous – with age.

by Stephen Thomas Erlewine, allmusic
Gloria Estefan - Gloria! (1998):

Gloria Estefan - Gloria! (1998)

Tracklist:

01. Heaven's What I Feel (05:01)
02. Don't Stop (04:27)
03. Oye (04:39)
04. Real Woman (04:22)
05. Feelin' (04:09)
06. Don't Release Me (04:15)
07. Don't Let This Moment End (04:42)
08. Touched By An Angel (04:11)
09. Lucky Girl (04:31)
10. I Just Wanna Be Happy (03:53)
11. Cuba Libre (04:45)

Bonus Tracks:

12. Feelin' (Love To Infinity Remix) (04:43)
13. Don't Release Me (Wyclef Jean Mix) (04:05)
14. Heaven's What I Feel (Corazon Prohibido) (05:07)
15. Cuba Libre (Spanish/Pablo Flores Remix) (04:37)
16. Oye (Spanish/Pablo Flores Remix) (04:16)

Exact Audio Copy V1.3 from 2. September 2016

Отчёт EAC об извлечении, выполненном 29. сентября 2019, 15:10

Gloria Estefan / Gloria

Дисковод: PLEXTOR DVDR PX-712A Adapter: 1 ID: 0

Режим чтения : Достоверность
Использование точного потока : Да
Отключение кэша аудио : Да
Использование указателей C2 : Нет

Коррекция смещения при чтении : 30
Способность читать области Lead-in и Lead-out : Нет
Заполнение пропущенных сэмплов тишиной : Да
Удаление блоков с тишиной в начале и конце : Нет
При вычислениях CRC использовались нулевые сэмплы : Да
Интерфейс : Установленный внешний ASPI-интерфейс

Выходной формат : Пользовательский кодировщик
Выбранный битрейт : 128 kBit/s
Качество : Высокий
Добавление ID3-тега : Нет
Утилита сжатия : C:\Program Files\Exact Audio Copy\FLAC\FLAC.EXE
Дополнительные параметры : -V -8 -T "Genre=%genre%" -T "Artist=%artist%" -T "Title=%title%" -T "Album=%albumtitle%" -T "Date=%year%" -T "Tracknumber=%tracknr%" -T "Comment=%comment%" %source%


TOC извлечённого CD

Трек | Старт | Длительность | Начальный сектор | Конечный сектор
––––––––––––––––––––––––––––––––––-
1 | 0:00.00 | 5:01.45 | 0 | 22619
2 | 5:01.45 | 4:27.02 | 22620 | 42646
3 | 9:28.47 | 4:39.48 | 42647 | 63619
4 | 14:08.20 | 4:22.05 | 63620 | 83274
5 | 18:30.25 | 4:09.60 | 83275 | 102009
6 | 22:40.10 | 4:15.67 | 102010 | 121201
7 | 26:56.02 | 4:42.05 | 121202 | 142356
8 | 31:38.07 | 4:11.28 | 142357 | 161209
9 | 35:49.35 | 4:31.35 | 161210 | 181569
10 | 40:20.70 | 3:53.65 | 181570 | 199109
11 | 44:14.60 | 4:45.10 | 199110 | 220494
12 | 48:59.70 | 4:43.47 | 220495 | 241766
13 | 53:43.42 | 4:05.15 | 241767 | 260156
14 | 57:48.57 | 5:07.50 | 260157 | 283231
15 | 62:56.32 | 4:37.60 | 283232 | 304066
16 | 67:34.17 | 4:16.63 | 304067 | 323329


Характеристики диапазона извлечения и сообщения об ошибках

Выбранный диапазон

Имя файла I:\MOI_RAZDACI\Gloria Estefan - Gloria (1998)\Gloria Estefan - Gloria (1998)\Gloria Estefan - Gloria.wav

Пиковый уровень 99.9 %
Скорость извлечения 13.8 X
Качество диапазона 99.9 %
CRC теста FFD605C5
CRC копии FFD605C5
Копирование… OK

Ошибок не произошло

Конец отчёта

–– CUETools DB Plugin V2.1.6

[CTDB TOCID: H6cJoaqa12dnLtGgf8gAlVVgzCA-] found
Submit result: H6cJoaqa12dnLtGgf8gAlVVgzCA- has been confirmed
Track | CTDB Status
1 | (257/262) Accurately ripped
2 | (260/262) Accurately ripped
3 | (260/262) Accurately ripped
4 | (260/262) Accurately ripped
5 | (257/262) Accurately ripped
6 | (260/262) Accurately ripped
7 | (259/262) Accurately ripped
8 | (260/262) Accurately ripped
9 | (259/262) Accurately ripped
10 | (260/262) Accurately ripped
11 | (258/262) Accurately ripped
12 | (258/262) Accurately ripped
13 | (258/262) Accurately ripped
14 | (259/262) Accurately ripped
15 | (257/262) Accurately ripped
16 | (255/262) Accurately ripped


==== Контрольная сумма отчёта 623AE7E655F8EEFE3C07355C6B672F740568FE4DDD99134EAB5ED5799EC3C49F ====


[CUETools log; Date: 30.09.2019 7:40:04; Version: 2.1.4]
[AccurateRip ID: 002a009d-01f6a57e-c410d710] found.
Track [ CRC | V2 ] Status
01 [db3891f0|56687499] (025+066/143) Accurately ripped
02 [e0e7a30f|1220c048] (025+067/144) Accurately ripped
03 [ed0ba042|6c4f5857] (025+068/144) Accurately ripped
04 [a0cf131f|e5d3edcb] (025+066/142) Accurately ripped
05 [ab787e73|85f0dab4] (025+066/143) Accurately ripped
06 [b4a053b9|24bd714f] (025+067/144) Accurately ripped
07 [8ee11c41|ae2e1bde] (025+067/144) Accurately ripped
08 [be0f8f14|129cd49a] (025+067/144) Accurately ripped
09 [ef4f927e|569fafb5] (025+067/143) Accurately ripped
10 [fbd1e47c|29419b84] (026+067/144) Accurately ripped
11 [b324e436|bfa4c297] (025+067/143) Accurately ripped
12 [acdcd14f|dff131e4] (024+066/141) Accurately ripped
13 [8251f90c|f3e98cd1] (025+067/143) Accurately ripped
14 [9b61cfc5|b306ec76] (025+067/143) Accurately ripped
15 [402de3d6|4f405ffe] (026+066/142) Accurately ripped
16 [f656fc71|43122722] (021+066/139) Accurately ripped
Offsetted by -220:
01 [9bd998c7] (003/143) Accurately ripped
02 [28303334] (003/144) Accurately ripped
03 [48af9f10] (003/144) Accurately ripped
04 [821845d8] (003/142) Accurately ripped
05 [333148fe] (003/143) Accurately ripped
06 [987b5fe4] (003/144) Accurately ripped
07 [37b8765a] (003/144) Accurately ripped
08 [6f0a214b] (003/144) Accurately ripped
09 [78d89069] (003/143) Accurately ripped
10 [b363128d] (003/144) Accurately ripped
11 [1e737d65] (003/143) Accurately ripped
12 [7e04315f] (003/141) Accurately ripped
13 [5d1c7314] (003/143) Accurately ripped
14 [82dba4a5] (003/143) Accurately ripped
15 [937afdba] (003/142) Accurately ripped
16 [6894bebf] (003/139) Accurately ripped
Offsetted by -155:
01 [9bf1f79b] (011/143) Accurately ripped
02 [2d8cf3db] (011/144) Accurately ripped
03 [0a9d259f] (011/144) Accurately ripped
04 [16988d6a] (011/142) Accurately ripped
05 [8cab0ef0] (011/143) Accurately ripped
06 [d911505d] (011/144) Accurately ripped
07 [b6242854] (011/144) Accurately ripped
08 [d987e45f] (011/144) Accurately ripped
09 [69dee05c] (011/143) Accurately ripped
10 [2e297624] (011/144) Accurately ripped
11 [56ed6446] (011/143) Accurately ripped
12 [d1acec43] (011/141) Accurately ripped
13 [3bc56475] (011/143) Accurately ripped
14 [d016c8ea] (011/143) Accurately ripped
15 [fdf353d4] (011/142) Accurately ripped
16 [1a8f54bd] (006/139) Accurately ripped

Track Peak [ CRC32 ] [W/O NULL] [ LOG ]
– 99,9 [FFD605C5] [2542F7FC] CRC32
01 98,6 [0A902CA5] [7A0073FA]
02 99,9 [EB9AEA41] [A2552F28]
03 99,9 [428956B1] [7128DE15]
04 99,9 [FCA240C0] [3D221602]
05 99,9 [7F9DBB3A] [56ACD993]
06 99,9 [4E76B6A7] [F6A104BD]
07 99,9 [5460FDC0] [EF4703E7]
08 99,9 [C57934C5] [A17B9438]
09 99,9 [B8FC1296] [942C0CD3]
10 99,9 [EBE4CAE1] [4281BC64]
11 99,9 [8432C04F] [F769642D]
12 99,9 [995C0471] [E0BFBA07]
13 99,9 [A18603D5] [B303BDBA]
14 96,5 [8E5B5736] [E6A8C4F8]
15 97,6 [7223829F] [31BECCCE]
16 99,8 [04E67ACB] [2E9D67B4]


Gloria Estefan - Gloria! (1998)

All thanks go to stas64

Gloria Estefan in my Blog

Download Gloria Estefan - Gloria! (1998):