Subcategories

Go-Go's - Return To The Valley Of The Go-Go's (1994) 2CDs [Re-Up]

Posted By: Designol
Go-Go's - Return To The Valley Of The Go-Go's (1994) 2CDs [Re-Up]

Go-Go's - Return To The Valley Of The Go-Go's (1994) 2CDs
EAC | FLAC | Tracks (Cue&Log) ~ 729 Mb | Mp3 (CBR320) ~ 253 Mb | Scans ~ 43 Mb
New Wave, Punk Rock, Pop/Rock | Label: I.R.S. | # X2 29694 | Time: 01:50:44

Of all the various best-ofs and compilations that have come out over time that cover the Go-Go's career, this one is the clearest winner, by a long shot. Though by default it doesn't tell the full story, appearing as it did in 1994, in terms of containing both the famous hits and a slew of rarities and unreleased tracks, Return to the Valley of the Go-Go's is equally valuable for both neophytes and hardcore fans. The first 11 tracks alone make for an entertaining peek into the band's earliest days, with a slew of live cuts from both early rehearsals and gigs, including a number of songs taped at the legendary SF punk venue the Mabuhay Gardens. Everything's rough, energetic, and merry fun – while it's no surprise why some compositions remained unheard in later years, it's still worth hearing how the group pureed everything from straight-up punk to spaghetti Western guitar and girl group right from the start. A real treat is a romp through "Johnny, Are You Queer?" which would later get a more famous (and much more sedate!) take by Josie Cotton. Plenty of rare B-sides from the group's commercially dominant days surface here and there, and as for the big hits, they're available a-plenty: "We Got the Beat," "Vacation," "Our Lips Are Sealed," "Head Over Heels," "Turn to You," and more. Choice album cuts include "Skidmarks on My Heart" and "This Town." Closing things out is an acoustic live take on "Mercenary" from the band's 1990 reunion and three wholly new songs from 1994, including the enjoyable "The Whole World Lost Its Head." Topping things off is a great booklet featuring a hilarious collection of photos and ephemera from early days on, with plenty of amusing comments from the bandmembers, along with an enjoyable history of the group and reflections from all five on their favorite songs.

Review by Ned Raggett, Allmusic.com

Go-Go's - Return To The Valley Of The Go-Go's (1994) 2CDs [Re-Up]

Go-Go's - Return To The Valley Of The Go-Go's (1994) 2CDs [Re-Up]



Tracklist:

CD1:

01. Living At The Canterbury / Party Pose (4:29)
02. Screaming (2:10)
03. Johnny Are You Queer? (2:07)
04. Fun With Ropes (2:12)
05. Fashion Seekers-Intro / Fashion Seekers (3:08)
06. Blades (2:35)
07. He's So Strange (4:11)
08. London Boys (2:40)
09. Let's Have A Party (1:32)
10. Beatnik Beach (2:44)
11. (Remember) Walking In The Sand (3:07)
12. Lust To Love (3:28)
13. How Much More (2:59)
14. Cool Jerk (2:31)
15. We Got The Beat (Single Mix) (2:31)
16. Skidmarks On My Heart (3:05)
17. This Town (3:18)
18. Our Lips Are Sealed (2:46)

CD2:

01. Surfing And Spying (1:56)
02. Vacation (2:59)
03. Speeding (2:07)
04. Get Up And Go (3:17)
05. It's Everything But Party Time (3:20)
06. Beneath The Blue Sky (3:03)
07. Good For Gone (2:54)
08. Head Over Heels (3:36)
09. Turn To You (3:49)
10. Yes Or No (single mix) (3:36)
11. I'm With You (live, 1984) (3:37)
12. We Don't Get Along (live, 1982) (2:41)
13. Can't Stop The World (live, 1984) (3:24)
14. I'm The Only One (live, 1984) (3:25)
15. Mercenary (acoustic) (live, 1990) (4:32)
16. Good Girl (3:36)
17. Beautiful (4:00)
18. The Whole World Lost Its Head (2:57)


EAC extraction logfile from 7. December 2007, 23:46 for CD
The Go-Go's / Return To The Valley Of The Go-Go's (Disc 1)

Used drive : CD-R/RW 52X24X52X Adapter: 1 ID: 1
Read mode : Secure with NO C2, accurate stream, disable cache
Read offset correction : 97
Overread into Lead-In and Lead-Out : No

Used output format : Internal WAV Routines
44.100 Hz; 16 Bit; Stereo

Other options :
Fill up missing offset samples with silence : Yes
Delete leading and trailing silent blocks : No
Native Win32 interface for Win NT & 2000


Track 1
Filename C:\EAC\WorkingFolder\The Go-Go's - Return To The Valley Of The Go-Go's (Disc 1) [1994] - 01 - Living At The Canterbury , Party Pose.wav

Peak level 100.0 %
Track quality 99.9 %
Test CRC DE6AD31D
Copy CRC DE6AD31D
Copy OK

Track 2
Filename C:\EAC\WorkingFolder\The Go-Go's - Return To The Valley Of The Go-Go's (Disc 1) [1994] - 02 - Screaming.wav

Peak level 91.9 %
Track quality 99.9 %
Test CRC 6B564123
Copy CRC 6B564123
Copy OK

Track 3
Filename C:\EAC\WorkingFolder\The Go-Go's - Return To The Valley Of The Go-Go's (Disc 1) [1994] - 03 - Johnny Are You Queer .wav

Peak level 92.5 %
Track quality 100.0 %
Test CRC EC6746A1
Copy CRC EC6746A1
Copy OK

Track 4
Filename C:\EAC\WorkingFolder\The Go-Go's - Return To The Valley Of The Go-Go's (Disc 1) [1994] - 04 - Fun With Ropes.wav

Peak level 100.0 %
Track quality 100.0 %
Test CRC CA484998
Copy CRC CA484998
Copy OK

Track 5
Filename C:\EAC\WorkingFolder\The Go-Go's - Return To The Valley Of The Go-Go's (Disc 1) [1994] - 05 - Fashion Seekers-Intro , Fashion Seekers.wav

Peak level 100.0 %
Track quality 100.0 %
Test CRC FBC6DD68
Copy CRC FBC6DD68
Copy OK

Track 6
Filename C:\EAC\WorkingFolder\The Go-Go's - Return To The Valley Of The Go-Go's (Disc 1) [1994] - 06 - Blades.wav

Peak level 100.0 %
Track quality 100.0 %
Test CRC 19224469
Copy CRC 19224469
Copy OK

Track 7
Filename C:\EAC\WorkingFolder\The Go-Go's - Return To The Valley Of The Go-Go's (Disc 1) [1994] - 07 - He's So Strange.wav

Peak level 87.7 %
Track quality 100.0 %
Test CRC BE46146B
Copy CRC BE46146B
Copy OK

Track 8
Filename C:\EAC\WorkingFolder\The Go-Go's - Return To The Valley Of The Go-Go's (Disc 1) [1994] - 08 - London Boys.wav

Peak level 100.0 %
Track quality 100.0 %
Test CRC D6031E8C
Copy CRC D6031E8C
Copy OK

Track 9
Filename C:\EAC\WorkingFolder\The Go-Go's - Return To The Valley Of The Go-Go's (Disc 1) [1994] - 09 - Let's Have A Party.wav

Peak level 94.1 %
Track quality 99.8 %
Test CRC 7FC99424
Copy CRC 7FC99424
Copy OK

Track 10
Filename C:\EAC\WorkingFolder\The Go-Go's - Return To The Valley Of The Go-Go's (Disc 1) [1994] - 10 - Beatnik Beach.wav

Peak level 90.8 %
Track quality 99.9 %
Test CRC 5B0FDEC8
Copy CRC 5B0FDEC8
Copy OK

Track 11
Filename C:\EAC\WorkingFolder\The Go-Go's - Return To The Valley Of The Go-Go's (Disc 1) [1994] - 11 - (Remember) Walking In The Sand.wav

Peak level 87.4 %
Track quality 99.9 %
Test CRC EF9165DD
Copy CRC EF9165DD
Copy OK

Track 12
Filename C:\EAC\WorkingFolder\The Go-Go's - Return To The Valley Of The Go-Go's (Disc 1) [1994] - 12 - Lust To Love.wav

Peak level 95.5 %
Track quality 99.9 %
Test CRC 612F268F
Copy CRC 612F268F
Copy OK

Track 13
Filename C:\EAC\WorkingFolder\The Go-Go's - Return To The Valley Of The Go-Go's (Disc 1) [1994] - 13 - How Much More.wav

Peak level 100.0 %
Track quality 100.0 %
Test CRC 70696DF8
Copy CRC 70696DF8
Copy OK

Track 14
Filename C:\EAC\WorkingFolder\The Go-Go's - Return To The Valley Of The Go-Go's (Disc 1) [1994] - 14 - Cool Jerk.wav

Peak level 100.0 %
Track quality 99.9 %
Test CRC 9BF96392
Copy CRC 9BF96392
Copy OK

Track 15
Filename C:\EAC\WorkingFolder\The Go-Go's - Return To The Valley Of The Go-Go's (Disc 1) [1994] - 15 - We Got The Beat (Single Mix).wav

Peak level 100.0 %
Track quality 100.0 %
Test CRC F64BB2DF
Copy CRC F64BB2DF
Copy OK

Track 16
Filename C:\EAC\WorkingFolder\The Go-Go's - Return To The Valley Of The Go-Go's (Disc 1) [1994] - 16 - Skidmarks On My Heart.wav

Peak level 100.0 %
Track quality 100.0 %
Test CRC 045FA2E2
Copy CRC 045FA2E2
Copy OK

Track 17
Filename C:\EAC\WorkingFolder\The Go-Go's - Return To The Valley Of The Go-Go's (Disc 1) [1994] - 17 - This Town.wav

Peak level 100.0 %
Track quality 100.0 %
Test CRC 15832C31
Copy CRC 15832C31
Copy OK

Track 18
Filename C:\EAC\WorkingFolder\The Go-Go's - Return To The Valley Of The Go-Go's (Disc 1) [1994] - 18 - Our Lips Are Sealed.wav

Peak level 98.0 %
Track quality 100.0 %
Test CRC B209D22B
Copy CRC B209D22B
Copy OK

No errors occured


End of status report

[CUETools log; Date: 24.05.2017 23:36:00; Version: 2.1.4]
[CTDB TOCID: xEtwPbEuKA0wjEgqjHq61Gu.uMA-] found.
Track | CTDB Status
1 | (4/4) Accurately ripped
2 | (4/4) Accurately ripped
3 | (4/4) Accurately ripped
4 | (4/4) Accurately ripped
5 | (4/4) Accurately ripped
6 | (4/4) Accurately ripped
7 | (4/4) Accurately ripped
8 | (4/4) Accurately ripped
9 | (4/4) Accurately ripped
10 | (4/4) Accurately ripped
11 | (4/4) Accurately ripped
12 | (4/4) Accurately ripped
13 | (4/4) Accurately ripped
14 | (4/4) Accurately ripped
15 | (4/4) Accurately ripped
16 | (4/4) Accurately ripped
17 | (4/4) Accurately ripped
18 | (4/4) Accurately ripped
[AccurateRip ID: 0021b6ec-01bfbcc3-e80c1c12] found.
Track [ CRC | V2 ] Status
01 [13149536|7f83d48b] (2+0/2) Accurately ripped
02 [f6509b70|26b257ce] (3+0/3) Accurately ripped
03 [d4187d3e|2561086c] (3+0/3) Accurately ripped
04 [9329cc93|34aabeb8] (3+0/3) Accurately ripped
05 [c859f81e|613d63e7] (3+0/3) Accurately ripped
06 [f99696e7|98058aa8] (3+0/3) Accurately ripped
07 [2a1f15e0|f5e90d3c] (3+0/3) Accurately ripped
08 [b0d6faac|5fdf95c6] (3+0/3) Accurately ripped
09 [9945c1a8|294abf00] (3+0/3) Accurately ripped
10 [d6b8b16a|517a8ec3] (3+0/3) Accurately ripped
11 [b9ea8988|897e344a] (3+0/3) Accurately ripped
12 [0f42a4fd|0d8d3dbb] (3+0/3) Accurately ripped
13 [8e374a8e|f6d1a99c] (3+0/3) Accurately ripped
14 [e49ef6b0|6c34b25a] (3+0/3) Accurately ripped
15 [c0ebbb9a|f74658c9] (3+0/3) Accurately ripped
16 [dde9f4c9|735766f4] (3+0/3) Accurately ripped
17 [e51fa84e|c1280121] (3+0/3) Accurately ripped
18 [29923710|be9a347c] (3+0/3) Accurately ripped

Track Peak [ CRC32 ] [W/O NULL] [ LOG ]
– 100,0 [DE0E4485] [D0F439B4]
01 100,0 [DE6AD31D] [891B65AB] CRC32
02 91,9 [6B564123] [C245C810] CRC32
03 92,5 [EC6746A1] [CD71A004] CRC32
04 100,0 [CA484998] [65365C92] CRC32
05 100,0 [FBC6DD68] [10B1E341] CRC32
06 100,0 [19224469] [2663CBB2] CRC32
07 87,7 [BE46146B] [C7D1B8D6] CRC32
08 100,0 [D6031E8C] [072084A7] CRC32
09 94,1 [7FC99424] [DF331A47] CRC32
10 90,8 [5B0FDEC8] [9F44236D] CRC32
11 87,4 [EF9165DD] [22EACCFA] CRC32
12 95,5 [612F268F] [C6ECE655] CRC32
13 100,0 [70696DF8] [3CE5B15B] CRC32
14 100,0 [9BF96392] [DBED1C1F] CRC32
15 100,0 [F64BB2DF] [78FEDC87] CRC32
16 100,0 [045FA2E2] [FA7800F9] CRC32
17 100,0 [15832C31] [97C51265] CRC32
18 98,0 [B209D22B] [2AEE7363] CRC32

foobar2000 1.2 / Dynamic Range Meter 1.1.1
log date: 2017-05-24 23:38:48

––––––––––––––––––––––––––––––––––––––––
Analyzed: Go-Go's / Return To The Valley Of The Go-Go's (Disc 1)
––––––––––––––––––––––––––––––––––––––––

DR Peak RMS Duration Track
––––––––––––––––––––––––––––––––––––––––
DR9 0.00 dB -11.66 dB 4:31 01-Living At The Canterbury, Party Pose
DR10 -0.73 dB -12.15 dB 2:10 02-Screaming
DR10 -0.67 dB -12.34 dB 2:07 03-Johnny Are You Queer
DR10 0.00 dB -11.77 dB 2:13 04-Fun With Ropes
DR10 0.00 dB -13.00 dB 3:08 05-Fashion Seekers-Intro, Fashion Seekers
DR8 0.00 dB -10.05 dB 2:35 06-Blades
DR8 -1.14 dB -11.24 dB 4:12 07-He's So Strange
DR11 0.00 dB -12.69 dB 2:40 08-London Boys
DR12 -0.53 dB -14.18 dB 1:32 09-Let's Have A Party
DR12 -0.83 dB -13.76 dB 2:44 10-Beatnik Beach
DR12 -1.16 dB -15.18 dB 3:07 11-(Remember) Walking In The Sand
DR10 -0.40 dB -12.46 dB 3:28 12-Lust To Love
DR11 0.00 dB -11.90 dB 3:00 13-How Much More
DR12 0.00 dB -14.14 dB 2:32 14-Cool Jerk
DR12 0.00 dB -13.14 dB 2:32 15-We Got The Beat (Single Mix)
DR10 0.00 dB -11.41 dB 3:06 16-Skidmarks On My Heart
DR11 0.00 dB -13.30 dB 3:18 17-This Town
DR12 -0.17 dB -13.63 dB 2:46 18-Our Lips Are Sealed
––––––––––––––––––––––––––––––––––––––––

Number of tracks: 18
Official DR value: DR11

Samplerate: 44100 Hz
Channels: 2
Bits per sample: 16
Bitrate: 1012 kbps
Codec: FLAC
================================================================================


EAC extraction logfile from 8. December 2007, 2:23 for CD
Go-Go's / Return To The Valley Of The Go-Go's [Disc 2)

Used drive : CD-R/RW 52X24X52X Adapter: 1 ID: 1
Read mode : Secure with NO C2, accurate stream, disable cache
Read offset correction : 97
Overread into Lead-In and Lead-Out : No

Used output format : Internal WAV Routines
44.100 Hz; 16 Bit; Stereo

Other options :
Fill up missing offset samples with silence : Yes
Delete leading and trailing silent blocks : No
Native Win32 interface for Win NT & 2000


Track 1
Filename C:\EAC\WorkingFolder\Go-Go's - Return To The Valley Of The Go-Go's [Disc 2) [1994] - 01 - Surfing And Spying.wav

Peak level 100.0 %
Track quality 100.0 %
Test CRC 3098A674
Copy CRC 3098A674
Copy OK

Track 2
Filename C:\EAC\WorkingFolder\Go-Go's - Return To The Valley Of The Go-Go's [Disc 2) [1994] - 02 - Vacation.wav

Peak level 100.0 %
Track quality 100.0 %
Test CRC 7C1F177C
Copy CRC 7C1F177C
Copy OK

Track 3
Filename C:\EAC\WorkingFolder\Go-Go's - Return To The Valley Of The Go-Go's [Disc 2) [1994] - 03 - Speeding.wav

Peak level 95.2 %
Track quality 100.0 %
Test CRC 668DC264
Copy CRC 668DC264
Copy OK

Track 4
Filename C:\EAC\WorkingFolder\Go-Go's - Return To The Valley Of The Go-Go's [Disc 2) [1994] - 04 - Get Up And Go.wav

Peak level 100.0 %
Track quality 100.0 %
Test CRC B5F5E8D2
Copy CRC B5F5E8D2
Copy OK

Track 5
Filename C:\EAC\WorkingFolder\Go-Go's - Return To The Valley Of The Go-Go's [Disc 2) [1994] - 05 - It's Everything But Party Time.wav

Peak level 100.0 %
Track quality 99.9 %
Test CRC FD1C4CD7
Copy CRC FD1C4CD7
Copy OK

Track 6
Filename C:\EAC\WorkingFolder\Go-Go's - Return To The Valley Of The Go-Go's [Disc 2) [1994] - 06 - Beneath The Blue Sky.wav

Peak level 98.3 %
Track quality 100.0 %
Test CRC 74946F25
Copy CRC 74946F25
Copy OK

Track 7
Filename C:\EAC\WorkingFolder\Go-Go's - Return To The Valley Of The Go-Go's [Disc 2) [1994] - 07 - Good For Gone.wav

Peak level 100.0 %
Track quality 100.0 %
Test CRC 34F31D9A
Copy CRC 34F31D9A
Copy OK

Track 8
Filename C:\EAC\WorkingFolder\Go-Go's - Return To The Valley Of The Go-Go's [Disc 2) [1994] - 08 - Head Over Heels.wav

Peak level 100.0 %
Track quality 100.0 %
Test CRC 46AA5BB2
Copy CRC 46AA5BB2
Copy OK

Track 9
Filename C:\EAC\WorkingFolder\Go-Go's - Return To The Valley Of The Go-Go's [Disc 2) [1994] - 09 - Turn To You.wav

Peak level 100.0 %
Track quality 100.0 %
Test CRC EE8D5420
Copy CRC EE8D5420
Copy OK

Track 10
Filename C:\EAC\WorkingFolder\Go-Go's - Return To The Valley Of The Go-Go's [Disc 2) [1994] - 10 - Yes Or No (single mix).wav

Peak level 98.3 %
Track quality 100.0 %
Test CRC 17B6D9C5
Copy CRC 17B6D9C5
Copy OK

Track 11
Filename C:\EAC\WorkingFolder\Go-Go's - Return To The Valley Of The Go-Go's [Disc 2) [1994] - 11 - I'm With You (live, 1984).wav

Peak level 98.7 %
Track quality 99.9 %
Test CRC 259252D2
Copy CRC 259252D2
Copy OK

Track 12
Filename C:\EAC\WorkingFolder\Go-Go's - Return To The Valley Of The Go-Go's [Disc 2) [1994] - 12 - We Don't Get Along (live, 1982).wav

Peak level 85.3 %
Track quality 100.0 %
Test CRC 45F6E063
Copy CRC 45F6E063
Copy OK

Track 13
Filename C:\EAC\WorkingFolder\Go-Go's - Return To The Valley Of The Go-Go's [Disc 2) [1994] - 13 - Can't Stop The World (live, 1984).wav

Peak level 94.4 %
Track quality 100.0 %
Test CRC 304A30AF
Copy CRC 304A30AF
Copy OK

Track 14
Filename C:\EAC\WorkingFolder\Go-Go's - Return To The Valley Of The Go-Go's [Disc 2) [1994] - 14 - I'm The Only One (live, 1984).wav

Peak level 100.0 %
Track quality 99.9 %
Test CRC 86EFFB0B
Copy CRC 86EFFB0B
Copy OK

Track 15
Filename C:\EAC\WorkingFolder\Go-Go's - Return To The Valley Of The Go-Go's [Disc 2) [1994] - 15 - Mercenary (acoustic) (live, 1990).wav

Peak level 86.3 %
Track quality 99.9 %
Test CRC E7FA3519
Copy CRC E7FA3519
Copy OK

Track 16
Filename C:\EAC\WorkingFolder\Go-Go's - Return To The Valley Of The Go-Go's [Disc 2) [1994] - 16 - Good Girl.wav

Peak level 81.9 %
Track quality 100.0 %
Test CRC C72074B0
Copy CRC C72074B0
Copy OK

Track 17
Filename C:\EAC\WorkingFolder\Go-Go's - Return To The Valley Of The Go-Go's [Disc 2) [1994] - 17 - Beautiful.wav

Peak level 100.0 %
Track quality 100.0 %
Test CRC 6774BCD8
Copy CRC 6774BCD8
Copy OK

Track 18
Filename C:\EAC\WorkingFolder\Go-Go's - Return To The Valley Of The Go-Go's [Disc 2) [1994] - 18 - The Whole World Lost Its Head.wav

Peak level 100.0 %
Track quality 100.0 %
Test CRC 4B86A5AB
Copy CRC 4B86A5AB
Copy OK

No errors occured


End of status report

[CUETools log; Date: 24.05.2017 23:36:15; Version: 2.1.4]
[CTDB TOCID: Kr2uUPqDEeghG5Et4e25Due6Uzk-] found.
Track | CTDB Status
1 | (3/3) Accurately ripped
2 | (3/3) Accurately ripped
3 | (3/3) Accurately ripped
4 | (3/3) Accurately ripped
5 | (3/3) Accurately ripped
6 | (3/3) Accurately ripped
7 | (3/3) Accurately ripped
8 | (3/3) Accurately ripped
9 | (3/3) Accurately ripped
10 | (3/3) Accurately ripped
11 | (3/3) Accurately ripped
12 | (3/3) Accurately ripped
13 | (3/3) Accurately ripped
14 | (3/3) Accurately ripped
15 | (2/3) Accurately ripped
16 | (3/3) Accurately ripped
17 | (3/3) Accurately ripped
18 | (3/3) Accurately ripped
[AccurateRip ID: 00243709-01edbc68-e70dd712] found.
Track [ CRC | V2 ] Status
01 [b5e82881|a92d5df7] (0+0/2) No match
02 [7850aa09|49ee96f2] (0+0/2) No match
03 [fb3165ed|46630744] (0+0/2) No match
04 [0332119b|dd2737f7] (0+0/2) No match
05 [bc46f951|e16fc939] (0+0/2) No match
06 [56cfcf93|b539ca87] (0+0/2) No match
07 [cad315e8|628e5474] (0+0/2) No match
08 [755f923a|ac86ebe6] (0+0/2) No match
09 [8db2272a|9eb5b16a] (0+0/2) No match
10 [2bfa9d69|7791d544] (0+0/2) No match
11 [99376dea|b4627e03] (0+0/2) No match
12 [1a94ca8b|85233338] (0+0/2) No match
13 [ddbcbe4d|42241a0a] (0+0/2) No match
14 [1debec63|7889e3ef] (0+0/2) No match
15 [85f194c2|05017420] (0+0/2) No match
16 [1995d777|39125c05] (0+0/2) No match
17 [65809b7a|ebd48f88] (0+0/2) No match
18 [4c0f3899|5830fc4d] (0+0/2) No match
Offsetted by -48:
01 [58b0ce81] (2/2) Accurately ripped
02 [9889fbf9] (2/2) Accurately ripped
03 [844af44d] (2/2) Accurately ripped
04 [f286e37b] (2/2) Accurately ripped
05 [c4bc8071] (2/2) Accurately ripped
06 [979127c3] (2/2) Accurately ripped
07 [25b95a18] (2/2) Accurately ripped
08 [6e2c224a] (2/2) Accurately ripped
09 [8ff248ea] (2/2) Accurately ripped
10 [662223e9] (2/2) Accurately ripped
11 [e994ec5a] (2/2) Accurately ripped
12 [078b999b] (2/2) Accurately ripped
13 [76c62943] (2/2) Accurately ripped
14 [088193f5] (2/2) Accurately ripped
15 [b68ea2c2] (2/2) Accurately ripped
16 [7b5bb247] (2/2) Accurately ripped
17 [c6f8f1ba] (2/2) Accurately ripped
18 [d8ac6ba9] (2/2) Accurately ripped

Track Peak [ CRC32 ] [W/O NULL] [ LOG ]
– 100,0 [27AFEBD4] [7326C4C0]
01 100,0 [3098A674] [01E36511] CRC32
02 100,0 [7C1F177C] [E49763D0] CRC32
03 95,2 [668DC264] [187E972A] CRC32
04 100,0 [B5F5E8D2] [A7089D32] CRC32
05 100,0 [FD1C4CD7] [30F794D5] CRC32
06 98,3 [74946F25] [A671B59F] CRC32
07 100,0 [34F31D9A] [83058B52] CRC32
08 100,0 [46AA5BB2] [BE0C2626] CRC32
09 100,0 [EE8D5420] [00E54B0E] CRC32
10 98,3 [17B6D9C5] [177E4CCA] CRC32
11 98,7 [259252D2] [285CDC78] CRC32
12 85,3 [45F6E063] [B3E7EAAF] CRC32
13 94,4 [304A30AF] [331DAA37] CRC32
14 100,0 [86EFFB0B] [ADF131ED] CRC32
15 86,3 [E7FA3519] [04B709B2] CRC32
16 81,9 [C72074B0] [15098A40] CRC32
17 100,0 [6774BCD8] [5D5C520C] CRC32
18 100,0 [4B86A5AB] [3B063900] CRC32

foobar2000 1.2 / Dynamic Range Meter 1.1.1
log date: 2017-05-24 23:39:12

––––––––––––––––––––––––––––––––––––––––
Analyzed: Go-Go's / Return To The Valley Of The Go-Go's (Disc 2)
––––––––––––––––––––––––––––––––––––––––

DR Peak RMS Duration Track
––––––––––––––––––––––––––––––––––––––––
DR10 0.00 dB -11.58 dB 1:57 01-Surfing And Spying
DR13 0.00 dB -14.86 dB 2:59 02-Vacation
DR11 -0.42 dB -13.35 dB 2:08 03-Speeding
DR12 0.00 dB -13.29 dB 3:17 04-Get Up And Go
DR13 0.00 dB -15.60 dB 3:21 05-It's Everything But Party Time
DR10 -0.15 dB -11.01 dB 3:04 06-Beneath The Blue Sky
DR11 0.00 dB -12.06 dB 2:56 07-Good For Gone
DR11 0.00 dB -12.22 dB 3:37 08-Head Over Heels
DR11 0.00 dB -11.76 dB 3:51 09-Turn To You
DR10 -0.14 dB -11.26 dB 3:37 10-Yes Or No (single mix)
DR12 -0.11 dB -14.82 dB 3:37 11-I'm With You (live, 1984)
DR11 -1.38 dB -14.09 dB 2:42 12-We Don't Get Along (live, 1982)
DR11 -0.50 dB -13.26 dB 3:24 13-Can't Stop The World (live, 1984)
DR12 0.00 dB -13.28 dB 3:27 14-I'm The Only One (live, 1984)
DR13 -1.27 dB -18.49 dB 4:34 15-Mercenary (acoustic) (live, 1990)
DR12 -1.73 dB -16.38 dB 3:37 16-Good Girl
DR12 0.00 dB -13.19 dB 4:00 17-Beautiful
DR11 0.00 dB -12.16 dB 2:57 18-The Whole World Lost Its Head
––––––––––––––––––––––––––––––––––––––––

Number of tracks: 18
Official DR value: DR11

Samplerate: 44100 Hz
Channels: 2
Bits per sample: 16
Bitrate: 1000 kbps
Codec: FLAC
================================================================================

Go-Go's - Return To The Valley Of The Go-Go's (1994) 2CDs [Re-Up]

Go-Go's - Return To The Valley Of The Go-Go's (1994) 2CDs [Re-Up]

All thanks to original releaser - BackDoor Man

More interesting music in My Blog