Subcategories

Godley & Creme - Body Of Work 1978-1988 (2017) [5CD Box Set]

Posted By: v3122
Godley & Creme - Body Of Work 1978-1988 (2017) [5CD Box Set]

Godley & Creme - Body Of Work 1978-1988 (2017)
EAC | Flac(Image) + Cue + Log & MP3 CBR 320Kbps
Caroline Records, CAROLR064CD | ~ 2175 or 763 Mb | Scans(png) -> 390 Mb
Rock / Pop / Soft Rock

2017 five CD set. Godley & Creme were an English rock duo composed of Kevin Godley and Lol Creme. The pair began releasing albums as a duo after splitting from the pop band 10cc. In 1979 they directed their first music video for their own single "An Englishman in New York". After this, they became involved in directing videos for such artists as The Police, Yes, Duran Duran, and Frankie Goes to Hollywood, as well as directing the ground-breaking video for their own "Cry" in 1985. The duo split at the end of the 1980s and have both been involved in music videos, TV commercials, and sporadic music projects since. This set brings together all the albums they recorded for Polydor as well as a selection of B-Sides and extended mixes, all mastered by Andy Pearce and approved by Kevin and Lol. The booklet and box set has been designed by Kevin Godley and features new interviews with both members of the band by Mojo's Daryl Easlea.

~ amazon
Godley & Creme - Body Of Work 1978-1988 (2017):

Godley & Creme - Body Of Work 1978-1988 (2017) [5CD Box Set]

Tracklist CD1:

L:
01 The Sporting Life
02 Sandwiches Of You
03 Art School Canteen
04 Group Life
05 Punchbag
06 Foreign Accents
07 Hit Factory / Business Is Business

Freeze Frame:
08 An Englishman In New York
09 Random Brainwave
10 Pity Inanimate Objects
11 Freeze Frame
12 Clues
13 Brazilia (Wish You Were Here)
14 Mugshots
15 Get Well Soon

Exact Audio Copy V1.3 from 2. September 2016

EAC extraction logfile from 20. September 2017, 17:01

Godley & Creme / Body Of Work CD1

Used drive : Optiarc DVD RW AD-7280S Adapter: 1 ID: 0

Read mode : Secure
Utilize accurate stream : Yes
Defeat audio cache : Yes
Make use of C2 pointers : No

Read offset correction : 48
Overread into Lead-In and Lead-Out : No
Fill up missing offset samples with silence : Yes
Delete leading and trailing silent blocks : No
Null samples used in CRC calculations : Yes
Used interface : Native Win32 interface for Win NT & 2000

Used output format : Internal WAV Routines
Sample format : 44.100 Hz; 16 Bit; Stereo


TOC of the extracted CD

Track | Start | Length | Start sector | End sector
––––––––––––––––––––––––––––-
1 | 0:00.00 | 7:28.07 | 0 | 33606
2 | 7:28.07 | 3:18.33 | 33607 | 48489
3 | 10:46.40 | 3:05.30 | 48490 | 62394
4 | 13:51.70 | 4:08.16 | 62395 | 81010
5 | 18:00.11 | 4:44.62 | 81011 | 102372
6 | 22:44.73 | 4:37.21 | 102373 | 123168
7 | 27:22.19 | 7:07.60 | 123169 | 155253
8 | 34:30.04 | 5:53.65 | 155254 | 181793
9 | 40:23.69 | 2:39.31 | 181794 | 193749
10 | 43:03.25 | 5:24.61 | 193750 | 218110
11 | 48:28.11 | 4:47.62 | 218111 | 239697
12 | 53:15.73 | 5:26.40 | 239698 | 264187
13 | 58:42.38 | 6:10.24 | 264188 | 291961
14 | 64:52.62 | 3:54.14 | 291962 | 309525
15 | 68:47.01 | 4:38.00 | 309526 | 330375


Range status and errors

Selected range

Filename C:\Users\Alex\Desktop\ALLexxess\Godley & Creme\2017 Body Of Work (5CD Box Set Universal Music)\CD1\Godley & Creme - Body Of Work CD1.wav

Peak level 97.0 %
Extraction speed 4.6 X
Range quality 100.0 %
Test CRC 3E03034F
Copy CRC 3E03034F
Copy OK

No errors occurred


AccurateRip summary

Track 1 not present in database
Track 2 not present in database
Track 3 not present in database
Track 4 not present in database
Track 5 not present in database
Track 6 not present in database
Track 7 not present in database
Track 8 not present in database
Track 9 not present in database
Track 10 not present in database
Track 11 not present in database
Track 12 not present in database
Track 13 not present in database
Track 14 not present in database
Track 15 not present in database

None of the tracks are present in the AccurateRip database

End of status report

–– CUETools DB Plugin V2.1.6

[CTDB TOCID: cqmwL8E6Un_MsxJkZyr2LWoy6yM-] found
Submit result: cqmwL8E6Un_MsxJkZyr2LWoy6yM- has been confirmed
Track | CTDB Status
1 | (1/1) Accurately ripped
2 | (1/1) Accurately ripped
3 | (1/1) Accurately ripped
4 | (1/1) Accurately ripped
5 | (1/1) Accurately ripped
6 | (1/1) Accurately ripped
7 | (1/1) Accurately ripped
8 | (1/1) Accurately ripped
9 | (1/1) Accurately ripped
10 | (1/1) Accurately ripped
11 | (1/1) Accurately ripped
12 | (1/1) Accurately ripped
13 | (1/1) Accurately ripped
14 | (1/1) Accurately ripped
15 | (1/1) Accurately ripped


==== Log checksum F64889AA436E64421DC608DDEFCFA9A121E3747E4DC2A4F3271A942C409415F5 ====


[CUETools log; Date: 21.09.2017 12:51:38; Version: 2.1.5]
[CTDB TOCID: cqmwL8E6Un_MsxJkZyr2LWoy6yM-] found.
Track | CTDB Status
1 | (2/2) Accurately ripped
2 | (2/2) Accurately ripped
3 | (2/2) Accurately ripped
4 | (2/2) Accurately ripped
5 | (2/2) Accurately ripped
6 | (2/2) Accurately ripped
7 | (2/2) Accurately ripped
8 | (2/2) Accurately ripped
9 | (2/2) Accurately ripped
10 | (2/2) Accurately ripped
11 | (2/2) Accurately ripped
12 | (2/2) Accurately ripped
13 | (2/2) Accurately ripped
14 | (2/2) Accurately ripped
15 | (2/2) Accurately ripped
[AccurateRip ID: 002837b8-01c8058a-d711350f] disk not present in database.

Track Peak [ CRC32 ] [W/O NULL] [ LOG ]
– 97,0 [3E03034F] [47187358] CRC32
01 97,0 [32F64DC6] [25FDAB18]
02 97,0 [27707CB7] [21C4635B]
03 97,0 [0D2D6D3A] [FC808507]
04 97,0 [16D55866] [5E990F8C]
05 97,0 [FEB82CFF] [42AF56CB]
06 97,0 [8A49E29C] [0A49620E]
07 97,0 [DD86B777] [B3E1C971]
08 90,0 [9FE934FE] [39369DC7]
09 97,0 [FB3F1883] [2CA06748]
10 94,0 [8A2543BC] [76FFC41E]
11 97,0 [5DC11810] [A5762D31]
12 97,0 [9DFD8BF6] [3F175797]
13 97,0 [E0D34689] [E5FF6E15]
14 97,0 [F5B8AC8C] [34213F72]
15 97,0 [7E8D4FF7] [D4D3A4F5]


Godley & Creme - Body Of Work 1978-1988 (2017) [5CD Box Set]

Tracklist CD2:

Ismism:
01 Snack Attack
02 Under Your Thumb
03 Joey's Camel
04 The Problem
05 Ready For Ralph
06 Wedding Bells
07 Lonnie
08 Sale Of The Century
09 The Party

Birds Of Prey:
10 My Body The Car
11 Worm And The Rattlesnake
12 Cats Eyes
13 Samson
14 Save A Mountain For Me
15 Madame Guillotine
16 Woodwork
17 Twisted Nerve

Exact Audio Copy V1.3 from 2. September 2016

EAC extraction logfile from 20. September 2017, 12:53

Godley & Creme / Body Of Work CD2

Used drive : PLEXTOR BD-R PX-B950SA Adapter: 1 ID: 1

Read mode : Secure
Utilize accurate stream : Yes
Defeat audio cache : Yes
Make use of C2 pointers : No

Read offset correction : 6
Overread into Lead-In and Lead-Out : No
Fill up missing offset samples with silence : Yes
Delete leading and trailing silent blocks : No
Null samples used in CRC calculations : Yes
Used interface : Native Win32 interface for Win NT & 2000

Used output format : Internal WAV Routines
Sample format : 44.100 Hz; 16 Bit; Stereo


TOC of the extracted CD

Track | Start | Length | Start sector | End sector
––––––––––––––––––––––––––––-
1 | 0:00.00 | 7:13.65 | 0 | 32539
2 | 7:13.65 | 4:45.70 | 32540 | 53984
3 | 11:59.60 | 5:28.35 | 53985 | 78619
4 | 17:28.20 | 4:04.65 | 78620 | 96984
5 | 21:33.10 | 2:24.00 | 96985 | 107784
6 | 23:57.10 | 3:25.66 | 107785 | 123225
7 | 27:23.01 | 4:49.51 | 123226 | 144951
8 | 32:12.52 | 4:25.38 | 144952 | 164864
9 | 36:38.15 | 8:08.68 | 164865 | 201532
10 | 44:47.08 | 2:25.39 | 201533 | 212446
11 | 47:12.47 | 3:25.14 | 212447 | 227835
12 | 50:37.61 | 3:44.36 | 227836 | 244671
13 | 54:22.22 | 5:30.13 | 244672 | 269434
14 | 59:52.35 | 3:38.60 | 269435 | 285844
15 | 63:31.20 | 5:05.15 | 285845 | 308734
16 | 68:36.35 | 4:40.19 | 308735 | 329753
17 | 73:16.54 | 4:03.44 | 329754 | 348022


Range status and errors

Selected range

Filename C:\Users\Alex\Desktop\ALLexxess\Godley & Creme\2017 Body Of Work (5CD Box Set Universal Music)\CD2\Godley & Creme - Body Of Work CD2.wav

Peak level 97.0 %
Extraction speed 4.0 X
Range quality 100.0 %
Test CRC E95B0D26
Copy CRC E95B0D26
Copy OK

No errors occurred


AccurateRip summary

Track 1 not present in database
Track 2 not present in database
Track 3 not present in database
Track 4 not present in database
Track 5 not present in database
Track 6 not present in database
Track 7 not present in database
Track 8 not present in database
Track 9 not present in database
Track 10 not present in database
Track 11 not present in database
Track 12 not present in database
Track 13 not present in database
Track 14 not present in database
Track 15 not present in database
Track 16 not present in database
Track 17 not present in database

None of the tracks are present in the AccurateRip database

End of status report

–– CUETools DB Plugin V2.1.6

[CTDB TOCID: rnu8i.Xop8RQkLqywqS5xKoPbN8-] found
Submit result: rnu8i.Xop8RQkLqywqS5xKoPbN8- has been confirmed
Track | CTDB Status
1 | (1/1) Accurately ripped
2 | (1/1) Accurately ripped
3 | (1/1) Accurately ripped
4 | (1/1) Accurately ripped
5 | (1/1) Accurately ripped
6 | (1/1) Accurately ripped
7 | (1/1) Accurately ripped
8 | (1/1) Accurately ripped
9 | (1/1) Accurately ripped
10 | (1/1) Accurately ripped
11 | (1/1) Accurately ripped
12 | (1/1) Accurately ripped
13 | (1/1) Accurately ripped
14 | (1/1) Accurately ripped
15 | (1/1) Accurately ripped
16 | (1/1) Accurately ripped
17 | (1/1) Accurately ripped


==== Log checksum 22513A20786F7B6CB1453402D14952470D15FB6DE87C88B4E85F35BE06E56DE7 ====


[CUETools log; Date: 21.09.2017 12:52:11; Version: 2.1.5]
[CTDB TOCID: rnu8i.Xop8RQkLqywqS5xKoPbN8-] found.
Track | CTDB Status
1 | (2/2) Accurately ripped
2 | (2/2) Accurately ripped
3 | (2/2) Accurately ripped
4 | (2/2) Accurately ripped
5 | (2/2) Accurately ripped
6 | (2/2) Accurately ripped
7 | (2/2) Accurately ripped
8 | (2/2) Accurately ripped
9 | (2/2) Accurately ripped
10 | (2/2) Accurately ripped
11 | (2/2) Accurately ripped
12 | (2/2) Accurately ripped
13 | (2/2) Accurately ripped
14 | (2/2) Accurately ripped
15 | (2/2) Accurately ripped
16 | (2/2) Accurately ripped
17 | (2/2) Accurately ripped
[AccurateRip ID: 00314e06-02672c02-f7122011] disk not present in database.

Track Peak [ CRC32 ] [W/O NULL] [ LOG ]
– 97,0 [E95B0D26] [21ABD2AB] CRC32
01 97,0 [3506675B] [6AFA510B]
02 88,4 [DE2C7184] [D6AFC8E4]
03 90,4 [5E371629] [5876264E]
04 97,0 [A6A381AD] [A93A0C14]
05 88,2 [566274EB] [C0FDD3EA]
06 93,9 [33443D73] [0D8A9578]
07 97,0 [4DD6AA35] [89661532]
08 97,0 [402ABF85] [798D2FA0]
09 97,0 [F00A3A3A] [3929F9CC]
10 97,0 [95A5BFFF] [6B7C7376]
11 97,0 [B9545AF0] [EBB38C4E]
12 93,8 [333E6425] [54B3CF44]
13 97,0 [6AF206A0] [58BB8E49]
14 97,0 [BD28014D] [EE42DE03]
15 97,0 [4FD8AA2A] [54295F1B]
16 97,0 [1992554F] [3BFEEA2A]
17 97,0 [767769F5] [4EA83315]


Godley & Creme - Body Of Work 1978-1988 (2017) [5CD Box Set]

Tracklist CD3:

Birds Of Prey:
01 Out In The Cold

History Mix Part 1:
02 Wet Rubber Soup
03 Cry
04 Expanding The Business / The 'Dare You' Man / Hum Drum Boys In Paris / Mountain Tensio
05 Cry (Single Edit)
06 Love Bombs
07 Snack Attack
08 Wet Rubber Soup (Edit)
09 Golden Boy (Remix)
10 Light Me Up
11 Golden Boy (12'' Mix)

Exact Audio Copy V1.3 from 2. September 2016

EAC extraction logfile from 20. September 2017, 8:01

Godley & Creme / Body Of Work CD3

Used drive : PLEXTOR BD-R PX-B950SA Adapter: 1 ID: 1

Read mode : Secure
Utilize accurate stream : Yes
Defeat audio cache : Yes
Make use of C2 pointers : No

Read offset correction : 6
Overread into Lead-In and Lead-Out : No
Fill up missing offset samples with silence : Yes
Delete leading and trailing silent blocks : No
Null samples used in CRC calculations : Yes
Used interface : Native Win32 interface for Win NT & 2000

Used output format : Internal WAV Routines
Sample format : 44.100 Hz; 16 Bit; Stereo


TOC of the extracted CD

Track | Start | Length | Start sector | End sector
––––––––––––––––––––––––––––-
1 | 0:00.00 | 4:52.52 | 0 | 21951
2 | 4:52.52 | 12:23.36 | 21952 | 77712
3 | 17:16.13 | 6:30.54 | 77713 | 107016
4 | 23:46.67 | 17:04.19 | 107017 | 183835
5 | 40:51.11 | 3:57.42 | 183836 | 201652
6 | 44:48.53 | 3:56.23 | 201653 | 219375
7 | 48:45.01 | 6:52.48 | 219376 | 250323
8 | 55:37.49 | 3:28.72 | 250324 | 265995
9 | 59:06.46 | 5:47.17 | 265996 | 292037
10 | 64:53.63 | 4:30.02 | 292038 | 312289
11 | 69:23.65 | 4:57.64 | 312290 | 334628


Range status and errors

Selected range

Filename C:\Users\Alex\Desktop\ALLexxess\Godley & Creme\2017 Body Of Work (5CD Box Set Universal Music)\CD3\Godley & Creme - Body Of Work CD3.wav

Peak level 97.0 %
Extraction speed 8.6 X
Range quality 100.0 %
Test CRC 14EA0091
Copy CRC 14EA0091
Copy OK

No errors occurred


AccurateRip summary

Track 1 not present in database
Track 2 not present in database
Track 3 not present in database
Track 4 not present in database
Track 5 not present in database
Track 6 not present in database
Track 7 not present in database
Track 8 not present in database
Track 9 not present in database
Track 10 not present in database
Track 11 not present in database

None of the tracks are present in the AccurateRip database

End of status report

–– CUETools DB Plugin V2.1.6

[CTDB TOCID: WKIdb6f90Ib0odqq53I6FIbVfoc-] found
Submit result: WKIdb6f90Ib0odqq53I6FIbVfoc- has been confirmed
Track | CTDB Status
1 | (1/1) Accurately ripped
2 | (1/1) Accurately ripped
3 | (1/1) Accurately ripped
4 | (1/1) Accurately ripped
5 | (1/1) Accurately ripped
6 | (1/1) Accurately ripped
7 | (1/1) Accurately ripped
8 | (1/1) Accurately ripped
9 | (1/1) Accurately ripped
10 | (1/1) Accurately ripped
11 | (1/1) Accurately ripped


==== Log checksum 10C48D759507B875B2C028795BA2C0A66E80A62265B8D9953FC9E7B6B481A590 ====


[CUETools log; Date: 21.09.2017 12:52:50; Version: 2.1.5]
[CTDB TOCID: WKIdb6f90Ib0odqq53I6FIbVfoc-] found.
Track | CTDB Status
1 | (2/2) Accurately ripped
2 | (2/2) Accurately ripped
3 | (2/2) Accurately ripped
4 | (2/2) Accurately ripped
5 | (2/2) Accurately ripped
6 | (2/2) Accurately ripped
7 | (2/2) Accurately ripped
8 | (2/2) Accurately ripped
9 | (2/2) Accurately ripped
10 | (2/2) Accurately ripped
11 | (2/2) Accurately ripped
[AccurateRip ID: 002296c8-012403ec-ae116d0b] disk not present in database.

Track Peak [ CRC32 ] [W/O NULL] [ LOG ]
– 97,0 [14EA0091] [2BB313A0] CRC32
01 97,0 [E9989A63] [2FA6A689]
02 97,0 [07BD88D7] [F2354F7D]
03 97,0 [BBAE9F90] [B7D2A267]
04 97,0 [199878FE] [47D050D7]
05 97,0 [2B8FCF0B] [9537A472]
06 97,0 [5B32C55F] [B02D2274]
07 97,0 [3CADBAA5] [66B027C1]
08 97,0 [DDAD21BE] [7E97EC6D]
09 97,0 [61C6C071] [0373C7E1]
10 97,0 [16F8DF8B] [F38FC7D2]
11 97,0 [3BED6BD7] [BBDEE3E9]


Godley & Creme - Body Of Work 1978-1988 (2017) [5CD Box Set]

Tracklist CD4:

Goodbye Blue Sky:
01 H.E.A.V.E.N. / A Little Piece Of Heaven
02 Don't Set Fire (To The One I Love)
03 Golden Rings
04 Crime & Punishment
05 The Big Bang
06 10,000 Angels
07 Sweet Memory
08 Airforce One
09 The Last Page Of History
10 Desperate Times

Exact Audio Copy V1.3 from 2. September 2016

EAC extraction logfile from 20. September 2017, 7:22

Godley & Creme / Body Of Work CD4

Used drive : PLEXTOR BD-R PX-B950SA Adapter: 1 ID: 1

Read mode : Secure
Utilize accurate stream : Yes
Defeat audio cache : Yes
Make use of C2 pointers : No

Read offset correction : 6
Overread into Lead-In and Lead-Out : No
Fill up missing offset samples with silence : Yes
Delete leading and trailing silent blocks : No
Null samples used in CRC calculations : Yes
Used interface : Native Win32 interface for Win NT & 2000

Used output format : Internal WAV Routines
Sample format : 44.100 Hz; 16 Bit; Stereo


TOC of the extracted CD

Track | Start | Length | Start sector | End sector
––––––––––––––––––––––––––––-
1 | 0:00.00 | 5:05.73 | 0 | 22947
2 | 5:05.73 | 3:25.63 | 22948 | 38385
3 | 8:31.61 | 4:14.43 | 38386 | 57478
4 | 12:46.29 | 7:19.27 | 57479 | 90430
5 | 20:05.56 | 2:30.62 | 90431 | 101742
6 | 22:36.43 | 5:14.45 | 101743 | 125337
7 | 27:51.13 | 4:49.44 | 125338 | 147056
8 | 32:40.57 | 3:40.07 | 147057 | 163563
9 | 36:20.64 | 3:59.62 | 163564 | 181550
10 | 40:20.51 | 3:38.44 | 181551 | 197944


Range status and errors

Selected range

Filename C:\Users\Alex\Desktop\ALLexxess\Godley & Creme\2017 Body Of Work (5CD Box Set Universal Music)\CD4\Godley & Creme - Body Of Work CD4.wav

Peak level 97.0 %
Extraction speed 6.8 X
Range quality 100.0 %
Test CRC 27A5CB77
Copy CRC 27A5CB77
Copy OK

No errors occurred


AccurateRip summary

Track 1 not present in database
Track 2 not present in database
Track 3 not present in database
Track 4 not present in database
Track 5 not present in database
Track 6 not present in database
Track 7 not present in database
Track 8 not present in database
Track 9 not present in database
Track 10 not present in database

None of the tracks are present in the AccurateRip database

End of status report

–– CUETools DB Plugin V2.1.6

[CTDB TOCID: SGjabDrp1o3_9_cqQpCb13g9JCM-] found
Submit result: SGjabDrp1o3_9_cqQpCb13g9JCM- has been confirmed
Track | CTDB Status
1 | (1/1) Accurately ripped
2 | (1/1) Accurately ripped
3 | (1/1) Accurately ripped
4 | (1/1) Accurately ripped
5 | (1/1) Accurately ripped
6 | (1/1) Accurately ripped
7 | (1/1) Accurately ripped
8 | (1/1) Accurately ripped
9 | (1/1) Accurately ripped
10 | (1/1) Accurately ripped


==== Log checksum 065BA2EED00525F57366A2A19EBE24B5C6C407FF216B704E572A80053F8151DB ====


[CUETools log; Date: 21.09.2017 12:53:20; Version: 2.1.5]
[CTDB TOCID: SGjabDrp1o3_9_cqQpCb13g9JCM-] found.
Track | CTDB Status
1 | (2/2) Accurately ripped
2 | (2/2) Accurately ripped
3 | (2/2) Accurately ripped
4 | (2/2) Accurately ripped
5 | (2/2) Accurately ripped
6 | (2/2) Accurately ripped
7 | (2/2) Accurately ripped
8 | (2/2) Accurately ripped
9 | (2/2) Accurately ripped
10 | (2/2) Accurately ripped
[AccurateRip ID: 0011302a-0088e863-7f0a4f0a] disk not present in database.

Track Peak [ CRC32 ] [W/O NULL] [ LOG ]
– 97,0 [27A5CB77] [E08E1ABB] CRC32
01 97,0 [54E60E6C] [F30B0030]
02 97,0 [9844672B] [EE6C3132]
03 97,0 [8FCA4975] [2561B5AB]
04 97,0 [56E9460F] [97962A1A]
05 97,0 [29661A1C] [8F1C5C91]
06 97,0 [AD302473] [F2C4B3CE]
07 97,0 [A1A830BD] [8E2EA029]
08 97,0 [7E5AA088] [D552DA50]
09 97,0 [6A1E6E33] [8F78144F]
10 95,9 [67F5FF22] [FB03C9FB]


Godley & Creme - Body Of Work 1978-1988 (2017) [5CD Box Set]

Tracklist CD5:

Bonus Tracks:
01 Silent Running (B-Side Of An Englishman In New York)
02 Wide Boy (A-Side Single)
03 Submarine (A-Side Single)
04 Marciano (B-Side Submarine)
05 Babies (B-Side Wedding Bells)
06 Power Behind The Throne (B-Side Under Your Thumb)
07 Welcome To Breakfast Television (B-Side Save A Mountain For Me)
08 A Little Piece Of Heaven (Extended Mix)
09 Bits Of Blue Sky (B-Side A Little Piece Of Heaven)
10 Rhino Rhino (B-Side A Little Piece Of Heaven)
11 Hidden Heartbreak (B-Side 10,000 Angels)
12 Can't Sleep (B-Side 10,000 Angels)

Exact Audio Copy V1.3 from 2. September 2016

EAC extraction logfile from 19. September 2017, 16:54

Godley & Creme / Body Of Work CD5

Used drive : PLEXTOR BD-R PX-B950SA Adapter: 1 ID: 1

Read mode : Secure
Utilize accurate stream : Yes
Defeat audio cache : Yes
Make use of C2 pointers : No

Read offset correction : 6
Overread into Lead-In and Lead-Out : No
Fill up missing offset samples with silence : Yes
Delete leading and trailing silent blocks : No
Null samples used in CRC calculations : Yes
Used interface : Native Win32 interface for Win NT & 2000

Used output format : Internal WAV Routines
Sample format : 44.100 Hz; 16 Bit; Stereo


TOC of the extracted CD

Track | Start | Length | Start sector | End sector
––––––––––––––––––––––––––––-
1 | 0:00.00 | 4:03.38 | 0 | 18262
2 | 4:03.38 | 3:30.22 | 18263 | 34034
3 | 7:33.60 | 4:00.41 | 34035 | 52075
4 | 11:34.26 | 3:26.20 | 52076 | 67545
5 | 15:00.46 | 4:41.62 | 67546 | 88682
6 | 19:42.33 | 3:38.11 | 88683 | 105043
7 | 23:20.44 | 2:33.55 | 105044 | 116573
8 | 25:54.24 | 6:07.22 | 116574 | 144120
9 | 32:01.46 | 5:45.70 | 144121 | 170065
10 | 37:47.41 | 3:19.12 | 170066 | 185002
11 | 41:06.53 | 4:34.04 | 185003 | 205556
12 | 45:40.57 | 2:11.14 | 205557 | 215395


Range status and errors

Selected range

Filename C:\Users\Alex\Desktop\ALLexxess\Godley & Creme\2017 Body Of Work (5CD Box Set Universal Music)\CD5\Godley & Creme - Body Of Work CD5.wav

Peak level 97.0 %
Extraction speed 6.9 X
Range quality 100.0 %
Test CRC 7D9B52A3
Copy CRC 7D9B52A3
Copy OK

No errors occurred


AccurateRip summary

Track 1 not present in database
Track 2 not present in database
Track 3 not present in database
Track 4 not present in database
Track 5 not present in database
Track 6 not present in database
Track 7 not present in database
Track 8 not present in database
Track 9 not present in database
Track 10 not present in database
Track 11 not present in database
Track 12 not present in database

None of the tracks are present in the AccurateRip database

End of status report

–– CUETools DB Plugin V2.1.6

[CTDB TOCID: gbpigBekzt.QyvfwfvMRV78UOsU-] found
Submit result: gbpigBekzt.QyvfwfvMRV78UOsU- has been confirmed
Track | CTDB Status
1 | (1/1) Accurately ripped
2 | (1/1) Accurately ripped
3 | (1/1) Accurately ripped
4 | (1/1) Accurately ripped
5 | (1/1) Accurately ripped
6 | (1/1) Accurately ripped
7 | (1/1) Accurately ripped
8 | (1/1) Accurately ripped
9 | (1/1) Accurately ripped
10 | (1/1) Accurately ripped
11 | (1/1) Accurately ripped
12 | (1/1) Accurately ripped


==== Log checksum D88455741A9C980C381CD4FCC879F6284854F946814BED1CF5C274CFC40742F3 ====


[CUETools log; Date: 21.09.2017 12:53:50; Version: 2.1.5]
[CTDB TOCID: gbpigBekzt.QyvfwfvMRV78UOsU-] found.
Track | CTDB Status
1 | (2/2) Accurately ripped
2 | (2/2) Accurately ripped
3 | (2/2) Accurately ripped
4 | (2/2) Accurately ripped
5 | (2/2) Accurately ripped
6 | (2/2) Accurately ripped
7 | (2/2) Accurately ripped
8 | (2/2) Accurately ripped
9 | (2/2) Accurately ripped
10 | (2/2) Accurately ripped
11 | (2/2) Accurately ripped
12 | (2/2) Accurately ripped
[AccurateRip ID: 001565fc-00c92d16-a60b370c] disk not present in database.

Track Peak [ CRC32 ] [W/O NULL] [ LOG ]
– 97,0 [7D9B52A3] [66C978E0] CRC32
01 97,0 [27F886A0] [013A1A1F]
02 97,0 [022F4F7F] [776F82BF]
03 89,9 [C8BB74AC] [C09C04CB]
04 92,7 [99057ABC] [654E5CAD]
05 88,9 [51775073] [07F866DD]
06 97,0 [B10F5C34] [DC507C1E]
07 85,8 [1D620C40] [A713F5E5]
08 81,0 [20C08E4A] [733A4BBE]
09 97,0 [B252E177] [BBA9B8D1]
10 97,0 [1340F239] [FE9B08D4]
11 97,0 [CF2F7915] [49654366]
12 97,0 [94D064F7] [DB2860DF]


Godley & Creme - Body Of Work 1978-1988 (2017) [5CD Box Set]

All thanks go to ALLexxess

Godley & Creme or Godley & Creme in my Blog

Download Godley & Creme - Body Of Work 1978-1988 (2017):