Subcategories

Golden Earring - The Complete Studio Recordings (2017) [29 CD Box Set] Part 2

Posted By: v3122
Golden Earring - The Complete Studio Recordings (2017) [29 CD Box Set] Part 2

Golden Earring - The Complete Studio Recordings (2017) [29 CD Box Set] Part 2
EAC | Flac(Image) + Cue + Log & MP3 CBR 320Kbps
24CD | Universal Music, 571944-1 | ~ 7396 or 2564 Mb | Scans(png) -> 760 Mb
Psychedelic Rock / Classic Rock / Beat / Pop Rock

Limited 29 CD box set. From their debut Just Ear-rings from 1965 till the tribute to their hometown The Hague from 2015 - all 26 studio albums by Holland's most legendary rock band are collected in a monumental box Complete Studio Recordings, augmented with no less than three CD's full of non-album tracks. Throughout the years Golden Earring released no less than 26 studio albums. Next to that, dozens of songs were released but not on official albums (the so called non-album tracks), including classics like 'That Day', 'Sound Of The Screaming Day', 'Another 45 Miles', 'Holy Holy Life' and hard to find songs, like 'So You Want To Be A Rock'n'Roll Star' / 'L.A. Woman' and 'You Gun My Love'. In total no less than 307 songs, that for the first time are compiled in this box set Complete Studio Recordings, including extended liner notes per album by respected music journalist Tjerk Lammers. So turn the volume up to 11 and hear how a little beat band from The Hague turned into the biggest and best Dutch rock band ever!

~ amazon
Golden Earring - The Complete Studio Recordings (2017) [29 CD Box Set] Part 2

Golden Earring - The Complete Studio Recordings (2017) [29 CD Box Set] Part 2:

Golden Earring - The Complete Studio Recordings (2017) [29 CD Box Set] Part 2

Tracklist CD06 - 1970 - Golden Earring: aka Back Home or Wall Of Dolls:

01. Yellow And Blue
02. The Loner
03. This Is The Time Of The Year
04. Big Tree Blue Sea
05. The Wall Of Dolls
06. Back Home
07. See See
08. I'm Going To Send My Pigeons To The Sky
09. As Long As The Wind Blows

Exact Audio Copy V1.1 from 23. June 2015

EAC extraction logfile from 18. March 2017, 18:01

Golden Earring / Golden Earring

Used drive : PLEXTOR BD-R PX-B950SA Adapter: 1 ID: 1

Read mode : Secure
Utilize accurate stream : Yes
Defeat audio cache : Yes
Make use of C2 pointers : No

Read offset correction : 6
Overread into Lead-In and Lead-Out : No
Fill up missing offset samples with silence : Yes
Delete leading and trailing silent blocks : No
Null samples used in CRC calculations : Yes
Used interface : Native Win32 interface for Win NT & 2000

Used output format : Internal WAV Routines
Sample format : 44.100 Hz; 16 Bit; Stereo


TOC of the extracted CD

Track | Start | Length | Start sector | End sector
––––––––––––––––––––––––––––-
1 | 0:00.00 | 3:45.44 | 0 | 16918
2 | 3:45.44 | 3:29.66 | 16919 | 32659
3 | 7:15.35 | 3:33.67 | 32660 | 48701
4 | 10:49.27 | 6:11.40 | 48702 | 76566
5 | 17:00.67 | 3:33.44 | 76567 | 92585
6 | 20:34.36 | 3:52.49 | 92586 | 110034
7 | 24:27.10 | 3:12.52 | 110035 | 124486
8 | 27:39.62 | 5:59.12 | 124487 | 151423
9 | 33:38.74 | 5:17.31 | 151424 | 175229


Range status and errors

Selected range

Filename C:\Users\Meijin\Desktop\ALLexxess\Golden Earring\2017 Complete Studio Recordings (29CD Box Set Universal Music)\1970 Golden Earring\Golden Earring - Golden Earring.wav

Peak level 100.0 %
Extraction speed 6.7 X
Range quality 100.0 %
Test CRC 83B64265
Copy CRC 83B64265
Copy OK

No errors occurred


AccurateRip summary

Track 1 accurately ripped (confidence 3) [7FE93D49] (AR v2)
Track 2 accurately ripped (confidence 3) [473100D8] (AR v2)
Track 3 accurately ripped (confidence 3) [860CDE48] (AR v2)
Track 4 accurately ripped (confidence 3) [9E5EED6A] (AR v2)
Track 5 accurately ripped (confidence 3) [F9A94375] (AR v2)
Track 6 accurately ripped (confidence 3) [B641438F] (AR v2)
Track 7 accurately ripped (confidence 3) [D2EC5CCF] (AR v2)
Track 8 accurately ripped (confidence 3) [F5CB7D52] (AR v2)
Track 9 accurately ripped (confidence 3) [9A8B834F] (AR v2)

All tracks accurately ripped

End of status report

–– CUETools DB Plugin V2.1.6

[CTDB TOCID: 3EK..jvdIC_IXvYIqnWA_a.lI24-] found
Submit result: 3EK..jvdIC_IXvYIqnWA_a.lI24- has been confirmed
Track | CTDB Status
1 | (2/2) Accurately ripped
2 | (2/2) Accurately ripped
3 | (2/2) Accurately ripped
4 | (2/2) Accurately ripped
5 | (2/2) Accurately ripped
6 | (2/2) Accurately ripped
7 | (2/2) Accurately ripped
8 | (2/2) Accurately ripped
9 | (2/2) Accurately ripped


==== Log checksum A5215AE5503CCB86F785367F0BE2ED7CF0157687F3389054F4A12397D3F968B8 ====

Golden Earring - The Complete Studio Recordings (2017) [29 CD Box Set] Part 2

Tracklist CD07 - 1971 - Seven Tears:

01. Silver Ships
02. The Road Swallowed Her Name
03. Hope
04. Don't Worry
05. She Flies On Strange Wings
06. This Is The Other Side Of Life
07. You're Better Off Free

Exact Audio Copy V1.1 from 23. June 2015

EAC extraction logfile from 18. March 2017, 17:38

Golden Earring / Seven Tears

Used drive : PLEXTOR BD-R PX-B950SA Adapter: 1 ID: 1

Read mode : Secure
Utilize accurate stream : Yes
Defeat audio cache : Yes
Make use of C2 pointers : No

Read offset correction : 6
Overread into Lead-In and Lead-Out : No
Fill up missing offset samples with silence : Yes
Delete leading and trailing silent blocks : No
Null samples used in CRC calculations : Yes
Used interface : Native Win32 interface for Win NT & 2000

Used output format : Internal WAV Routines
Sample format : 44.100 Hz; 16 Bit; Stereo


TOC of the extracted CD

Track | Start | Length | Start sector | End sector
––––––––––––––––––––––––––––-
1 | 0:00.00 | 5:41.62 | 0 | 25636
2 | 5:41.62 | 4:08.70 | 25637 | 44306
3 | 9:50.57 | 4:47.58 | 44307 | 65889
4 | 14:38.40 | 3:22.00 | 65890 | 81039
5 | 18:00.40 | 7:23.61 | 81040 | 114325
6 | 25:24.26 | 3:21.15 | 114326 | 129415
7 | 28:45.41 | 6:44.15 | 129416 | 159730


Range status and errors

Selected range

Filename C:\Users\Meijin\Desktop\ALLexxess\Golden Earring\2017 Complete Studio Recordings (29CD Box Set Universal Music)\1971 Seven Tears\Golden Earring - Seven Tears.wav

Peak level 92.3 %
Extraction speed 6.5 X
Range quality 100.0 %
Test CRC E26631D2
Copy CRC E26631D2
Copy OK

No errors occurred


AccurateRip summary

Track 1 accurately ripped (confidence 3) [72F32EF7] (AR v2)
Track 2 accurately ripped (confidence 3) [EB6CB991] (AR v2)
Track 3 accurately ripped (confidence 3) [5009EA4B] (AR v2)
Track 4 accurately ripped (confidence 3) [C8DD5B53] (AR v2)
Track 5 accurately ripped (confidence 3) [13909CF8] (AR v2)
Track 6 accurately ripped (confidence 3) [3FA3D743] (AR v2)
Track 7 accurately ripped (confidence 3) [7C76A548] (AR v2)

All tracks accurately ripped

End of status report

–– CUETools DB Plugin V2.1.6

[CTDB TOCID: TMVE1cmvHQvaPiufNP6I.6Mh5vs-] found
Submit result: TMVE1cmvHQvaPiufNP6I.6Mh5vs- has been confirmed
Track | CTDB Status
1 | (2/2) Accurately ripped
2 | (2/2) Accurately ripped
3 | (2/2) Accurately ripped
4 | (2/2) Accurately ripped
5 | (2/2) Accurately ripped
6 | (2/2) Accurately ripped
7 | (2/2) Accurately ripped


==== Log checksum EC3B77C339A4A16F0352CEFD01AEBF572A35ECD1061C18ED4C30DBF5D6AD5B46 ====


Golden Earring - The Complete Studio Recordings (2017) [29 CD Box Set] Part 2

Tracklist CD08 - 1972 - Together:

01. All Day Watcher
02. Avalanche Of Love
03. Cruisin' Southern Germany
04. Brother Wind
05. Buddy Joe
06. Jangalene
07. From Heaven From Hell
08. Thousand Feet Below You

Exact Audio Copy V1.1 from 23. June 2015

EAC extraction logfile from 17. March 2017, 18:16

Golden Earring / Together

Used drive : PLEXTOR BD-R PX-B950SA Adapter: 1 ID: 1

Read mode : Secure
Utilize accurate stream : Yes
Defeat audio cache : Yes
Make use of C2 pointers : No

Read offset correction : 6
Overread into Lead-In and Lead-Out : No
Fill up missing offset samples with silence : Yes
Delete leading and trailing silent blocks : No
Null samples used in CRC calculations : Yes
Used interface : Native Win32 interface for Win NT & 2000

Used output format : Internal WAV Routines
Sample format : 44.100 Hz; 16 Bit; Stereo


TOC of the extracted CD

Track | Start | Length | Start sector | End sector
––––––––––––––––––––––––––––-
1 | 0:00.00 | 4:54.55 | 0 | 22104
2 | 4:54.55 | 4:16.60 | 22105 | 41364
3 | 9:11.40 | 3:05.02 | 41365 | 55241
4 | 12:16.42 | 7:56.08 | 55242 | 90949
5 | 20:12.50 | 3:56.18 | 90950 | 108667
6 | 24:08.68 | 5:09.58 | 108668 | 131900
7 | 29:18.51 | 6:08.42 | 131901 | 159542
8 | 35:27.18 | 4:14.18 | 159543 | 178610


Range status and errors

Selected range

Filename C:\Users\Meijin\Desktop\ALLexxess\Golden Earring\2017 Complete Studio Recordings (29CD Box Set Universal Music)\1972 Together\Golden Earring - Together.wav

Peak level 91.7 %
Extraction speed 6.7 X
Range quality 100.0 %
Test CRC 2BE499DB
Copy CRC 2BE499DB
Copy OK

No errors occurred


AccurateRip summary

Track 1 accurately ripped (confidence 3) [6650C192] (AR v2)
Track 2 accurately ripped (confidence 3) [9333F2B8] (AR v2)
Track 3 accurately ripped (confidence 3) [B6CD7968] (AR v2)
Track 4 accurately ripped (confidence 3) [A717E9BC] (AR v2)
Track 5 accurately ripped (confidence 3) [D44A0954] (AR v2)
Track 6 accurately ripped (confidence 3) [46A92FB0] (AR v2)
Track 7 accurately ripped (confidence 3) [F5C62802] (AR v2)
Track 8 accurately ripped (confidence 3) [4BDFB92A] (AR v2)

All tracks accurately ripped

End of status report

–– CUETools DB Plugin V2.1.6

[CTDB TOCID: Q.iydjJZVGAgLwoEHn.IVP.OWNY-] found
Submit result: Q.iydjJZVGAgLwoEHn.IVP.OWNY- has been confirmed
Track | CTDB Status
1 | (2/2) Accurately ripped
2 | (2/2) Accurately ripped
3 | (2/2) Accurately ripped
4 | (2/2) Accurately ripped
5 | (2/2) Accurately ripped
6 | (2/2) Accurately ripped
7 | (2/2) Accurately ripped
8 | (2/2) Accurately ripped


==== Log checksum 8AC4E3493B02ECE42D38B8746B32FF95102013B3A4AE0E163E7F71F777DA19C8 ====


Golden Earring - The Complete Studio Recordings (2017) [29 CD Box Set] Part 2

Tracklist CD09 - 1973 - Moontan:

01. Candy's Going Bad
02. Are You Receiving Me
03. Suzy Lunacy (Mental Rock)
04. Radar Love
05. Just Like Vince Taylor
06. The Vanilla Queen

Exact Audio Copy V1.1 from 23. June 2015

EAC extraction logfile from 17. March 2017, 17:47

Golden Earring / Moontan

Used drive : PLEXTOR BD-R PX-B950SA Adapter: 1 ID: 1

Read mode : Secure
Utilize accurate stream : Yes
Defeat audio cache : Yes
Make use of C2 pointers : No

Read offset correction : 6
Overread into Lead-In and Lead-Out : No
Fill up missing offset samples with silence : Yes
Delete leading and trailing silent blocks : No
Null samples used in CRC calculations : Yes
Used interface : Native Win32 interface for Win NT & 2000

Used output format : Internal WAV Routines
Sample format : 44.100 Hz; 16 Bit; Stereo


TOC of the extracted CD

Track | Start | Length | Start sector | End sector
––––––––––––––––––––––––––––-
1 | 0:00.00 | 6:16.33 | 0 | 28232
2 | 6:16.33 | 9:33.42 | 28233 | 71249
3 | 15:50.00 | 4:24.70 | 71250 | 91119
4 | 20:14.70 | 6:25.31 | 91120 | 120025
5 | 26:40.26 | 4:33.16 | 120026 | 140516
6 | 31:13.42 | 9:16.22 | 140517 | 182238


Range status and errors

Selected range

Filename C:\Users\Meijin\Desktop\ALLexxess\Golden Earring\2017 Complete Studio Recordings (29CD Box Set Universal Music)\1973 Moontan\Golden Earring - Moontan.wav

Peak level 100.0 %
Extraction speed 6.7 X
Range quality 100.0 %
Test CRC 86CD43F9
Copy CRC 86CD43F9
Copy OK

No errors occurred


AccurateRip summary

Track 1 accurately ripped (confidence 2) [17EC2210] (AR v2)
Track 2 accurately ripped (confidence 2) [6D35E694] (AR v2)
Track 3 accurately ripped (confidence 2) [18C58FF5] (AR v2)
Track 4 accurately ripped (confidence 2) [327FB9E0] (AR v2)
Track 5 accurately ripped (confidence 2) [7A13D294] (AR v2)
Track 6 accurately ripped (confidence 2) [BC22F44E] (AR v2)

All tracks accurately ripped

End of status report

–– CUETools DB Plugin V2.1.6

[CTDB TOCID: V0cN2Nbyostsmd_luDrXviCAfn0-] found
Submit result: V0cN2Nbyostsmd_luDrXviCAfn0- has been confirmed
Track | CTDB Status
1 | (2/2) Accurately ripped
2 | (2/2) Accurately ripped
3 | (2/2) Accurately ripped
4 | (2/2) Accurately ripped
5 | (2/2) Accurately ripped
6 | (2/2) Accurately ripped


==== Log checksum 9BCCB27FC0D896144029CC23D05EA6401130AB0DA2B037EED7A08C0B838F7CBD ====


Golden Earring - The Complete Studio Recordings (2017) [29 CD Box Set] Part 2

Tracklist CD10 - 1975 - Switch:

01. Intro: Plus Minus Absurdio
02. Love Is A Rodeo
03. The Switch
04. Kill Me (Ce Soir)
05. Tons Of Time
06. Daddy's Gonna Save My Soul
07. Troubles And Hassles
08. Lonesome D.J.

Exact Audio Copy V1.1 from 23. June 2015

EAC extraction logfile from 17. March 2017, 17:22

Golden Earring / Switch

Used drive : PLEXTOR BD-R PX-B950SA Adapter: 1 ID: 1

Read mode : Secure
Utilize accurate stream : Yes
Defeat audio cache : Yes
Make use of C2 pointers : No

Read offset correction : 6
Overread into Lead-In and Lead-Out : No
Fill up missing offset samples with silence : Yes
Delete leading and trailing silent blocks : No
Null samples used in CRC calculations : Yes
Used interface : Native Win32 interface for Win NT & 2000

Used output format : Internal WAV Routines
Sample format : 44.100 Hz; 16 Bit; Stereo


TOC of the extracted CD

Track | Start | Length | Start sector | End sector
––––––––––––––––––––––––––––-
1 | 0:00.00 | 3:05.09 | 0 | 13883
2 | 3:05.09 | 3:33.52 | 13884 | 29910
3 | 6:38.61 | 5:24.09 | 29911 | 54219
4 | 12:02.70 | 6:16.13 | 54220 | 82432
5 | 18:19.08 | 4:17.58 | 82433 | 101765
6 | 22:36.66 | 4:12.47 | 101766 | 120712
7 | 26:49.38 | 4:14.69 | 120713 | 139831
8 | 31:04.32 | 4:29.02 | 139832 | 160008


Range status and errors

Selected range

Filename C:\Users\Meijin\Desktop\ALLexxess\Golden Earring\2017 Complete Studio Recordings (29CD Box Set Universal Music)\1975 Switch\Golden Earring - Switch.wav

Peak level 100.0 %
Extraction speed 6.4 X
Range quality 99.9 %
Test CRC D84CADE9
Copy CRC D84CADE9
Copy OK

No errors occurred


AccurateRip summary

Track 1 accurately ripped (confidence 3) [CF7718D1] (AR v2)
Track 2 accurately ripped (confidence 3) [7A2B7698] (AR v2)
Track 3 accurately ripped (confidence 3) [9E56B4D7] (AR v2)
Track 4 accurately ripped (confidence 3) [ADBBC771] (AR v2)
Track 5 accurately ripped (confidence 3) [823B07DA] (AR v2)
Track 6 accurately ripped (confidence 3) [A58274C6] (AR v2)
Track 7 accurately ripped (confidence 3) [D9B7B5ED] (AR v2)
Track 8 accurately ripped (confidence 3) [4C20DE46] (AR v2)

All tracks accurately ripped

End of status report

–– CUETools DB Plugin V2.1.6

[CTDB TOCID: bAeue3lSWV2MjNSkgcLpX8_rl4s-] found
Submit result: bAeue3lSWV2MjNSkgcLpX8_rl4s- has been confirmed
Track | CTDB Status
1 | (3/3) Accurately ripped
2 | (3/3) Accurately ripped
3 | (3/3) Accurately ripped
4 | (3/3) Accurately ripped
5 | (3/3) Accurately ripped
6 | (3/3) Accurately ripped
7 | (3/3) Accurately ripped
8 | (3/3) Accurately ripped


==== Log checksum A4EF428EEB980E70031B80BF73644162DE381EAEBDA02B4A5415CE049276B54D ====


Golden Earring - The Complete Studio Recordings (2017) [29 CD Box Set] Part 2

Tracklist CD11 - 1976 - To The Hilt:

01. Why Me?
02. Facedancer
03. To The Hilt
04. Nomad
05. Sleepwalkin'
06. Latin Lightning
07. Violins

Exact Audio Copy V1.1 from 23. June 2015

EAC extraction logfile from 12. March 2017, 16:37

Golden Earring / To The Hilt

Used drive : PLEXTOR BD-R PX-B950SA Adapter: 1 ID: 1

Read mode : Secure
Utilize accurate stream : Yes
Defeat audio cache : Yes
Make use of C2 pointers : No

Read offset correction : 6
Overread into Lead-In and Lead-Out : No
Fill up missing offset samples with silence : Yes
Delete leading and trailing silent blocks : No
Null samples used in CRC calculations : Yes
Used interface : Native Win32 interface for Win NT & 2000

Used output format : Internal WAV Routines
Sample format : 44.100 Hz; 16 Bit; Stereo


TOC of the extracted CD

Track | Start | Length | Start sector | End sector
––––––––––––––––––––––––––––-
1 | 0:00.00 | 7:14.44 | 0 | 32593
2 | 7:14.44 | 4:11.07 | 32594 | 51425
3 | 11:25.51 | 3:08.00 | 51426 | 65525
4 | 14:33.51 | 7:05.42 | 65526 | 97442
5 | 21:39.18 | 5:03.08 | 97443 | 120175
6 | 26:42.26 | 7:17.61 | 120176 | 153011
7 | 34:00.12 | 10:22.19 | 153012 | 199680


Range status and errors

Selected range

Filename C:\Users\Meijin\Desktop\ALLexxess\Golden Earring\2017 Complete Studio Recordings (29CD Box Set Universal Music)\1976 To The Hilt\Golden Earring - To The Hilt.wav

Peak level 100.0 %
Extraction speed 6.8 X
Range quality 100.0 %
Test CRC 80A84BB6
Copy CRC 80A84BB6
Copy OK

No errors occurred


AccurateRip summary

Track 1 accurately ripped (confidence 3) [02CEAC81] (AR v2)
Track 2 accurately ripped (confidence 3) [290F4E69] (AR v2)
Track 3 accurately ripped (confidence 3) [48191173] (AR v2)
Track 4 accurately ripped (confidence 3) [9173EFEE] (AR v2)
Track 5 accurately ripped (confidence 3) [1F84C3A6] (AR v2)
Track 6 accurately ripped (confidence 3) [E523DEFB] (AR v2)
Track 7 accurately ripped (confidence 3) [A25F42F3] (AR v2)

All tracks accurately ripped

End of status report

–– CUETools DB Plugin V2.1.6

[CTDB TOCID: qY7C2VBLv0BuJJyljoSECvzksMA-] found
Submit result: qY7C2VBLv0BuJJyljoSECvzksMA- has been confirmed
Track | CTDB Status
1 | (2/2) Accurately ripped
2 | (2/2) Accurately ripped
3 | (2/2) Accurately ripped
4 | (2/2) Accurately ripped
5 | (2/2) Accurately ripped
6 | (2/2) Accurately ripped
7 | (2/2) Accurately ripped


==== Log checksum D12EED55678F52B7377392715F8F00F41454174F2A069798AD9C3B0F366E954C ====


Golden Earring - The Complete Studio Recordings (2017) [29 CD Box Set] Part 2

Tracklist CD12 - 1976 - Contraband:

01. Bombay
02. Sueleen
03. Con Man
04. Mad Love's Comin'
05. Fightin' Windmills
06. Faded Jeans
07. Time's Up

Exact Audio Copy V1.1 from 23. June 2015

EAC extraction logfile from 12. March 2017, 9:54

Golden Earring / Contraband

Used drive : PLEXTOR BD-R PX-B950SA Adapter: 1 ID: 1

Read mode : Secure
Utilize accurate stream : Yes
Defeat audio cache : Yes
Make use of C2 pointers : No

Read offset correction : 6
Overread into Lead-In and Lead-Out : No
Fill up missing offset samples with silence : Yes
Delete leading and trailing silent blocks : No
Null samples used in CRC calculations : Yes
Used interface : Native Win32 interface for Win NT & 2000

Used output format : Internal WAV Routines
Sample format : 44.100 Hz; 16 Bit; Stereo


TOC of the extracted CD

Track | Start | Length | Start sector | End sector
––––––––––––––––––––––––––––-
1 | 0:00.00 | 3:54.08 | 0 | 17557
2 | 3:54.08 | 5:42.00 | 17558 | 43207
3 | 9:36.08 | 7:12.00 | 43208 | 75607
4 | 16:48.08 | 7:47.37 | 75608 | 110669
5 | 24:35.45 | 4:40.66 | 110670 | 131735
6 | 29:16.36 | 5:11.23 | 131736 | 155083
7 | 34:27.59 | 3:56.58 | 155084 | 172841


Range status and errors

Selected range

Filename C:\Users\Meijin\Desktop\ ALLexxess\Golden Earring\2017 Complete Studio Recordings (29CD Box Set Universal Music)\1976 Contraband\Golden Earring - Contraband.wav

Peak level 100.0 %
Extraction speed 6.6 X
Range quality 100.0 %
Test CRC 17AC79F7
Copy CRC 17AC79F7
Copy OK

No errors occurred


AccurateRip summary

Track 1 accurately ripped (confidence 3) [E5E6470B] (AR v2)
Track 2 accurately ripped (confidence 3) [F60B072A] (AR v2)
Track 3 accurately ripped (confidence 3) [DDB73DF9] (AR v2)
Track 4 accurately ripped (confidence 3) [46AF6429] (AR v2)
Track 5 accurately ripped (confidence 3) [CF7EDC46] (AR v2)
Track 6 accurately ripped (confidence 3) [07CFB286] (AR v2)
Track 7 accurately ripped (confidence 3) [506861C2] (AR v2)

All tracks accurately ripped

End of status report

–– CUETools DB Plugin V2.1.6

[CTDB TOCID: vhWKb8Fa1eyxz817xkBlNtj94ZM-] found
Submit result: vhWKb8Fa1eyxz817xkBlNtj94ZM- has been confirmed
Track | CTDB Status
1 | (1/1) Accurately ripped
2 | (1/1) Accurately ripped
3 | (1/1) Accurately ripped
4 | (1/1) Accurately ripped
5 | (1/1) Accurately ripped
6 | (1/1) Accurately ripped
7 | (1/1) Accurately ripped


==== Log checksum 22B996C8C6231C7435E89F83796C992BA146A70032D67B7B386E359B8D6DEA13 ====


Golden Earring - The Complete Studio Recordings (2017) [29 CD Box Set] Part 2

Tracklist CD13 - 1978 - Grab It For A Second:

01. Roxanne
02. Leather
03. Tempting
04. U-Turn Time
05. Movin' Down Life
06. Against The Grain
07. Grab It For A Second
08. Cell 29

Exact Audio Copy V1.1 from 23. June 2015

EAC extraction logfile from 12. March 2017, 9:32

Golden Earring / Grab It For A Second

Used drive : PLEXTOR BD-R PX-B950SA Adapter: 1 ID: 1

Read mode : Secure
Utilize accurate stream : Yes
Defeat audio cache : Yes
Make use of C2 pointers : No

Read offset correction : 6
Overread into Lead-In and Lead-Out : No
Fill up missing offset samples with silence : Yes
Delete leading and trailing silent blocks : No
Null samples used in CRC calculations : Yes
Used interface : Native Win32 interface for Win NT & 2000

Used output format : Internal WAV Routines
Sample format : 44.100 Hz; 16 Bit; Stereo


TOC of the extracted CD

Track | Start | Length | Start sector | End sector
––––––––––––––––––––––––––––-
1 | 0:00.00 | 3:41.06 | 0 | 16580
2 | 3:41.06 | 5:03.16 | 16581 | 39321
3 | 8:44.22 | 3:45.43 | 39322 | 56239
4 | 12:29.65 | 3:28.09 | 56240 | 71848
5 | 15:57.74 | 3:32.66 | 71849 | 87814
6 | 19:30.65 | 4:35.24 | 87815 | 108463
7 | 24:06.14 | 4:12.60 | 108464 | 127423
8 | 28:18.74 | 6:36.00 | 127424 | 157123


Range status and errors

Selected range

Filename C:\Users\Meijin\Desktop\ALLexxess\Golden Earring\2017 Complete Studio Recordings (29CD Box Set Universal Music)\1978 Grab It For A Second\Golden Earring - Grab It For A Second.wav

Peak level 100.0 %
Extraction speed 6.4 X
Range quality 100.0 %
Test CRC 8AFFD361
Copy CRC 8AFFD361
Copy OK

No errors occurred


AccurateRip summary

Track 1 accurately ripped (confidence 3) [395A56F1] (AR v2)
Track 2 accurately ripped (confidence 3) [C60FAC10] (AR v2)
Track 3 accurately ripped (confidence 3) [433D2A73] (AR v2)
Track 4 accurately ripped (confidence 3) [EBA59CEE] (AR v2)
Track 5 accurately ripped (confidence 3) [2A90AC0F] (AR v2)
Track 6 accurately ripped (confidence 3) [1FCE64D8] (AR v2)
Track 7 accurately ripped (confidence 3) [1BFEA8D1] (AR v2)
Track 8 accurately ripped (confidence 3) [84741B8A] (AR v2)

All tracks accurately ripped

End of status report

–– CUETools DB Plugin V2.1.6

[CTDB TOCID: Bl3k04VJGyYS8rKYK8xdM8dUuC0-] found
Submit result: Bl3k04VJGyYS8rKYK8xdM8dUuC0- has been confirmed
Track | CTDB Status
1 | (1/1) Accurately ripped
2 | (1/1) Accurately ripped
3 | (1/1) Accurately ripped
4 | (1/1) Accurately ripped
5 | (1/1) Accurately ripped
6 | (1/1) Accurately ripped
7 | (1/1) Accurately ripped
8 | (1/1) Accurately ripped


==== Log checksum 7CDC6987D1EAE4F05AA04B50FD9180B06122F674CEA55BCC3F5C54F5DFE2351F ====


Golden Earring - The Complete Studio Recordings (2017) [29 CD Box Set] Part 2

Tracklist CD14 - 1979 - No Promises…No Debts:

01. Heart Beat
02. Need Her
03. Sellin' Out
04. Snot Love In Spain
05. Save Your Skin
06. D Light
07. Tiger Bay
08. Weekend Love
09. Don't Close The Door
10. Don't Stop The Show
11. By Routes

Exact Audio Copy V1.1 from 23. June 2015

EAC extraction logfile from 12. March 2017, 9:11

Golden Earring / No Promises…No Debts

Used drive : PLEXTOR BD-R PX-B950SA Adapter: 1 ID: 1

Read mode : Secure
Utilize accurate stream : Yes
Defeat audio cache : Yes
Make use of C2 pointers : No

Read offset correction : 6
Overread into Lead-In and Lead-Out : No
Fill up missing offset samples with silence : Yes
Delete leading and trailing silent blocks : No
Null samples used in CRC calculations : Yes
Used interface : Native Win32 interface for Win NT & 2000

Used output format : Internal WAV Routines
Sample format : 44.100 Hz; 16 Bit; Stereo


TOC of the extracted CD

Track | Start | Length | Start sector | End sector
––––––––––––––––––––––––––––-
1 | 0:00.00 | 3:02.52 | 0 | 13701
2 | 3:02.52 | 3:10.00 | 13702 | 27951
3 | 6:12.52 | 3:49.12 | 27952 | 45138
4 | 10:01.64 | 3:54.71 | 45139 | 62759
5 | 13:56.60 | 6:46.12 | 62760 | 93221
6 | 20:42.72 | 3:36.00 | 93222 | 109421
7 | 24:18.72 | 3:14.45 | 109422 | 124016
8 | 27:33.42 | 4:16.11 | 124017 | 143227
9 | 31:49.53 | 3:31.36 | 143228 | 159088
10 | 35:21.14 | 2:45.42 | 159089 | 171505
11 | 38:06.56 | 2:53.41 | 171506 | 184521


Range status and errors

Selected range

Filename C:\Users\Meijin\Desktop\ALLexxess\Golden Earring\2017 Complete Studio Recordings (29CD Box Set Universal Music)\1979 No Promises…No Debts\Golden Earring - No Promises…No Debts.wav

Peak level 100.0 %
Extraction speed 6.7 X
Range quality 100.0 %
Test CRC C2D60C8D
Copy CRC C2D60C8D
Copy OK

No errors occurred


AccurateRip summary

Track 1 accurately ripped (confidence 2) [23966620] (AR v2)
Track 2 accurately ripped (confidence 2) [BD652024] (AR v2)
Track 3 accurately ripped (confidence 2) [083B087D] (AR v2)
Track 4 accurately ripped (confidence 2) [8834791A] (AR v2)
Track 5 accurately ripped (confidence 2) [7DD7F79F] (AR v2)
Track 6 accurately ripped (confidence 2) [5C80C57C] (AR v2)
Track 7 accurately ripped (confidence 2) [2698458F] (AR v2)
Track 8 accurately ripped (confidence 2) [10F7B692] (AR v2)
Track 9 accurately ripped (confidence 2) [86ECE679] (AR v2)
Track 10 accurately ripped (confidence 2) [93204355] (AR v2)
Track 11 accurately ripped (confidence 2) [10713F74] (AR v2)

All tracks accurately ripped

End of status report

–– CUETools DB Plugin V2.1.6

[CTDB TOCID: p.iHY.CCbn0lF_Wwh348.E1y4fQ-] found
Submit result: p.iHY.CCbn0lF_Wwh348.E1y4fQ- has been confirmed
Track | CTDB Status
1 | (1/1) Accurately ripped
2 | (1/1) Accurately ripped
3 | (1/1) Accurately ripped
4 | (1/1) Accurately ripped
5 | (1/1) Accurately ripped
6 | (1/1) Accurately ripped
7 | (1/1) Accurately ripped
8 | (1/1) Accurately ripped
9 | (1/1) Accurately ripped
10 | (1/1) Accurately ripped
11 | (1/1) Accurately ripped


==== Log checksum 745567604BC5D26A8B0C779EC91AD56412EE5DB2191A0516E67F30082574F084 ====


Golden Earring - The Complete Studio Recordings (2017) [29 CD Box Set] Part 2

Tracklist CD15 - 1980 - Prisoner Of The Night:

01. Long Blond Animal
02. No For An Answer
03. My Town
04. Prisoner Of The Night
05. I Don't Wanna Be Nobody Else
06. Cut 'Em Down To Size
07. Will & Mercy
08. Come In Outerspace
09. Going Crazy Again

Exact Audio Copy V1.1 from 23. June 2015

EAC extraction logfile from 12. March 2017, 8:39

Golden Earring / Prisoner Of The Night

Used drive : PLEXTOR BD-R PX-B950SA Adapter: 1 ID: 1

Read mode : Secure
Utilize accurate stream : Yes
Defeat audio cache : Yes
Make use of C2 pointers : No

Read offset correction : 6
Overread into Lead-In and Lead-Out : No
Fill up missing offset samples with silence : Yes
Delete leading and trailing silent blocks : No
Null samples used in CRC calculations : Yes
Used interface : Native Win32 interface for Win NT & 2000

Used output format : Internal WAV Routines
Sample format : 44.100 Hz; 16 Bit; Stereo


TOC of the extracted CD

Track | Start | Length | Start sector | End sector
––––––––––––––––––––––––––––-
1 | 0:00.00 | 3:37.34 | 0 | 16308
2 | 3:37.34 | 4:14.72 | 16309 | 35430
3 | 7:52.31 | 3:09.15 | 35431 | 49620
4 | 11:01.46 | 4:52.00 | 49621 | 71520
5 | 15:53.46 | 4:43.60 | 71521 | 92805
6 | 20:37.31 | 3:25.04 | 92806 | 108184
7 | 24:02.35 | 3:37.24 | 108185 | 124483
8 | 27:39.59 | 4:28.16 | 124484 | 144599
9 | 32:08.00 | 4:57.68 | 144600 | 166942


Range status and errors

Selected range

Filename C:\Users\Meijin\Desktop\ALLexxess\Golden Earring\2017 Complete Studio Recordings (29CD Box Set Universal Music)\1980 Prisoner Of The Night\Golden Earring - Prisoner Of The Night.wav

Peak level 100.0 %
Extraction speed 6.5 X
Range quality 100.0 %
Test CRC C4641FAF
Copy CRC C4641FAF
Copy OK

No errors occurred


AccurateRip summary

Track 1 accurately ripped (confidence 3) [18ECC635] (AR v2)
Track 2 accurately ripped (confidence 3) [99F30221] (AR v2)
Track 3 accurately ripped (confidence 3) [66BB3324] (AR v2)
Track 4 accurately ripped (confidence 3) [74633AA2] (AR v2)
Track 5 accurately ripped (confidence 3) [988C3E59] (AR v2)
Track 6 accurately ripped (confidence 3) [A37CD19D] (AR v2)
Track 7 accurately ripped (confidence 3) [A1910FDE] (AR v2)
Track 8 accurately ripped (confidence 3) [DAFD5815] (AR v2)
Track 9 accurately ripped (confidence 3) [6772A5C8] (AR v2)

All tracks accurately ripped

End of status report

–– CUETools DB Plugin V2.1.6

[CTDB TOCID: EiRYUg.sKI9UyGBgQNGQ83OojWI-] found
Submit result: EiRYUg.sKI9UyGBgQNGQ83OojWI- has been confirmed
Track | CTDB Status
1 | (1/1) Accurately ripped
2 | (1/1) Accurately ripped
3 | (1/1) Accurately ripped
4 | (1/1) Accurately ripped
5 | (1/1) Accurately ripped
6 | (1/1) Accurately ripped
7 | (1/1) Accurately ripped
8 | (1/1) Accurately ripped
9 | (1/1) Accurately ripped


==== Log checksum 75338B74F64BE2C9EF5695BE616D1710FBC860399FF0335E26688ED359D4DE48 ====


Golden Earring - The Complete Studio Recordings (2017) [29 CD Box Set] Part 2

Tracklist CD16 - 1982 - Cut:

01. The Devil Made Me Do It
02. Future
03. Baby Dynamite
04. The Of The Mohicans
05. Lost And Found
06. Twilight Zone
07. Chargin' Up My Batteries
08. Secrets

Exact Audio Copy V1.1 from 23. June 2015

EAC extraction logfile from 12. March 2017, 8:18

Golden Earring / Cut

Used drive : PLEXTOR BD-R PX-B950SA Adapter: 1 ID: 1

Read mode : Secure
Utilize accurate stream : Yes
Defeat audio cache : Yes
Make use of C2 pointers : No

Read offset correction : 6
Overread into Lead-In and Lead-Out : No
Fill up missing offset samples with silence : Yes
Delete leading and trailing silent blocks : No
Null samples used in CRC calculations : Yes
Used interface : Native Win32 interface for Win NT & 2000

Used output format : Internal WAV Routines
Sample format : 44.100 Hz; 16 Bit; Stereo


TOC of the extracted CD

Track | Start | Length | Start sector | End sector
––––––––––––––––––––––––––––-
1 | 0:00.00 | 3:24.09 | 0 | 15308
2 | 3:24.09 | 5:22.00 | 15309 | 39458
3 | 8:46.09 | 5:11.26 | 39459 | 62809
4 | 13:57.35 | 4:07.60 | 62810 | 81394
5 | 18:05.20 | 3:58.27 | 81395 | 99271
6 | 22:03.47 | 7:57.00 | 99272 | 135046
7 | 30:00.47 | 4:19.16 | 135047 | 154487
8 | 34:19.63 | 4:04.18 | 154488 | 172805


Range status and errors

Selected range

Filename C:\Users\Meijin\Desktop\ALLexxess\Golden Earring\2017 Complete Studio Recordings (29CD Box Set Universal Music)\1982 Cut\Golden Earring - Cut.wav

Peak level 100.0 %
Extraction speed 6.5 X
Range quality 99.9 %
Test CRC CB66864C
Copy CRC CB66864C
Copy OK

No errors occurred


AccurateRip summary

Track 1 accurately ripped (confidence 3) [1BDFD92A] (AR v2)
Track 2 accurately ripped (confidence 3) [1C34B06F] (AR v2)
Track 3 accurately ripped (confidence 3) [0DE241EE] (AR v2)
Track 4 accurately ripped (confidence 3) [C6B9328D] (AR v2)
Track 5 accurately ripped (confidence 3) [7F527F58] (AR v2)
Track 6 accurately ripped (confidence 3) [A3707105] (AR v2)
Track 7 accurately ripped (confidence 3) [0AC9D278] (AR v2)
Track 8 accurately ripped (confidence 3) [6EBDEC7E] (AR v2)

All tracks accurately ripped

End of status report

–– CUETools DB Plugin V2.1.6

[CTDB TOCID: nk_VTClt5Zw8SR9qh07egN7b3zg-] found
Submit result: nk_VTClt5Zw8SR9qh07egN7b3zg- has been confirmed
Track | CTDB Status
1 | (1/1) Accurately ripped
2 | (1/1) Accurately ripped
3 | (1/1) Accurately ripped
4 | (1/1) Accurately ripped
5 | (1/1) Accurately ripped
6 | (1/1) Accurately ripped
7 | (1/1) Accurately ripped
8 | (1/1) Accurately ripped


==== Log checksum 232933BEB3D920961F655C21F19F9D168492BDF797810414518AD586A40DD016 ====


Golden Earring - The Complete Studio Recordings (2017) [29 CD Box Set] Part 2

Tracklist CD17 - 1984 - N.E.W.S.:

01. Clear Night Moonlight
02. When The Lady Smiles
03. Enough Is Enough
04. Fist In Glove
05. Orwell's Year
06. N.E.W.S.
07. I'll Make It All Up To You
08. Mission Impossible
09. It's Over Now

Exact Audio Copy V1.1 from 23. June 2015

EAC extraction logfile from 11. March 2017, 17:07

Golden Earring / N.E.W.S.

Used drive : PLEXTOR BD-R PX-B950SA Adapter: 1 ID: 1

Read mode : Secure
Utilize accurate stream : Yes
Defeat audio cache : Yes
Make use of C2 pointers : No

Read offset correction : 6
Overread into Lead-In and Lead-Out : No
Fill up missing offset samples with silence : Yes
Delete leading and trailing silent blocks : No
Null samples used in CRC calculations : Yes
Used interface : Native Win32 interface for Win NT & 2000

Used output format : Internal WAV Routines
Sample format : 44.100 Hz; 16 Bit; Stereo


TOC of the extracted CD

Track | Start | Length | Start sector | End sector
––––––––––––––––––––––––––––-
1 | 0:00.00 | 3:25.68 | 0 | 15442
2 | 3:25.68 | 5:42.00 | 15443 | 41092
3 | 9:07.68 | 3:45.08 | 41093 | 57975
4 | 12:53.01 | 3:27.00 | 57976 | 73500
5 | 16:20.01 | 4:24.21 | 73501 | 93321
6 | 20:44.22 | 5:19.16 | 93322 | 117262
7 | 26:03.38 | 5:24.68 | 117263 | 141630
8 | 31:28.31 | 6:00.61 | 141631 | 168691
9 | 37:29.17 | 4:07.70 | 168692 | 187286


Range status and errors

Selected range

Filename C:\Users\Meijin\Desktop\ALLexxess\Golden Earring\2017 Complete Studio Recordings (29CD Box Set Universal Music)\1984 N.E.W.S\Golden Earring - N.E.W.S..wav

Peak level 100.0 %
Extraction speed 6.7 X
Range quality 100.0 %
Test CRC 124DD04E
Copy CRC 124DD04E
Copy OK

No errors occurred


AccurateRip summary

Track 1 accurately ripped (confidence 3) [9058ABE5] (AR v2)
Track 2 accurately ripped (confidence 3) [343C7D97] (AR v2)
Track 3 accurately ripped (confidence 3) [43F392C1] (AR v2)
Track 4 accurately ripped (confidence 3) [93180010] (AR v2)
Track 5 accurately ripped (confidence 3) [52E410BC] (AR v2)
Track 6 accurately ripped (confidence 3) [AEEC3DAC] (AR v2)
Track 7 accurately ripped (confidence 3) [2C5DCA07] (AR v2)
Track 8 accurately ripped (confidence 3) [40DF76BB] (AR v2)
Track 9 accurately ripped (confidence 3) [777570C7] (AR v2)

All tracks accurately ripped

End of status report

–– CUETools DB Plugin V2.1.6

[CTDB TOCID: RAdciZtASZjNP2TBSJksMvwpskE-] found
Submit result: RAdciZtASZjNP2TBSJksMvwpskE- has been confirmed
Track | CTDB Status
1 | (1/1) Accurately ripped
2 | (1/1) Accurately ripped
3 | (1/1) Accurately ripped
4 | (1/1) Accurately ripped
5 | (1/1) Accurately ripped
6 | (1/1) Accurately ripped
7 | (1/1) Accurately ripped
8 | (1/1) Accurately ripped
9 | (1/1) Accurately ripped


==== Log checksum 5E9E4837B7D4238B3A81797C32FAD6DEDD265A54537C9B0AB63E379E273043B1 ====


Golden Earring - The Complete Studio Recordings (2017) [29 CD Box Set] Part 2

Tracklist CD18 - 1986 - The Hole:

01. They Dance
02. Quiet Eyes
03. Save The Best For Later
04. Have A Heart
05. Love In Motion
06. Jane Jane
07. Jump And Run
08. Why Do I
09. A Shout In The Dark

Exact Audio Copy V1.1 from 23. June 2015

EAC extraction logfile from 11. March 2017, 16:44

Golden Earring / The Hole

Used drive : PLEXTOR BD-R PX-B950SA Adapter: 1 ID: 1

Read mode : Secure
Utilize accurate stream : Yes
Defeat audio cache : Yes
Make use of C2 pointers : No

Read offset correction : 6
Overread into Lead-In and Lead-Out : No
Fill up missing offset samples with silence : Yes
Delete leading and trailing silent blocks : No
Null samples used in CRC calculations : Yes
Used interface : Native Win32 interface for Win NT & 2000

Used output format : Internal WAV Routines
Sample format : 44.100 Hz; 16 Bit; Stereo


TOC of the extracted CD

Track | Start | Length | Start sector | End sector
––––––––––––––––––––––––––––-
1 | 0:00.00 | 5:08.64 | 0 | 23163
2 | 5:08.64 | 4:02.40 | 23164 | 41353
3 | 9:11.29 | 5:14.57 | 41354 | 64960
4 | 14:26.11 | 3:59.58 | 64961 | 82943
5 | 18:25.69 | 3:45.58 | 82944 | 99876
6 | 22:11.52 | 4:55.22 | 99877 | 122023
7 | 27:06.74 | 5:52.15 | 122024 | 148438
8 | 32:59.14 | 4:44.49 | 148439 | 169787
9 | 37:43.63 | 5:30.43 | 169788 | 194580


Range status and errors

Selected range

Filename C:\Users\Meijin\Desktop\ALLexxess\Golden Earring\2017 Complete Studio Recordings (29CD Box Set Universal Music)\1986 The Hole\Golden Earring - The Hole.wav

Peak level 100.0 %
Extraction speed 6.8 X
Range quality 100.0 %
Test CRC 9D3F27CD
Copy CRC 9D3F27CD
Copy OK

No errors occurred


AccurateRip summary

Track 1 accurately ripped (confidence 3) [1FC32249] (AR v2)
Track 2 accurately ripped (confidence 3) [7FC15BBF] (AR v2)
Track 3 accurately ripped (confidence 3) [C0238D37] (AR v2)
Track 4 accurately ripped (confidence 3) [CC8FA995] (AR v2)
Track 5 accurately ripped (confidence 3) [25303BA4] (AR v2)
Track 6 accurately ripped (confidence 3) [3B55458A] (AR v2)
Track 7 accurately ripped (confidence 3) [051D2B1E] (AR v2)
Track 8 accurately ripped (confidence 3) [88CB2BA5] (AR v2)
Track 9 accurately ripped (confidence 3) [88C4108C] (AR v2)

All tracks accurately ripped

End of status report

–– CUETools DB Plugin V2.1.6

[CTDB TOCID: BkDc89aFKfoLo8R.Xb1vWfUrcHI-] found
Submit result: BkDc89aFKfoLo8R.Xb1vWfUrcHI- has been confirmed
Track | CTDB Status
1 | (1/1) Accurately ripped
2 | (1/1) Accurately ripped
3 | (1/1) Accurately ripped
4 | (1/1) Accurately ripped
5 | (1/1) Accurately ripped
6 | (1/1) Accurately ripped
7 | (1/1) Accurately ripped
8 | (1/1) Accurately ripped
9 | (1/1) Accurately ripped


==== Log checksum 4EBFED60F3010FFC58AAEA92A0F0D864A59390E1DF9E338C54E93C68E355A577 ====

Golden Earring - The Complete Studio Recordings (2017) [29 CD Box Set] Part 2

Tracklist CD19 - 1989 - Keeper Of The Flame:

01. Can Do That
02. Too Much Woman (Not Enough Girl)
03. One Word
04. Keeper Of The Flame
05. Turn The World Around
06. Circles
07. Say My Prayer
08. Distant Love
09. Nighthawks
10. My Killer My Shadow

Exact Audio Copy V1.1 from 23. June 2015

EAC extraction logfile from 11. March 2017, 10:21

Golden Earring / Keeper Of The Flame

Used drive : PLEXTOR BD-R PX-B950SA Adapter: 1 ID: 1

Read mode : Secure
Utilize accurate stream : Yes
Defeat audio cache : Yes
Make use of C2 pointers : No

Read offset correction : 6
Overread into Lead-In and Lead-Out : No
Fill up missing offset samples with silence : Yes
Delete leading and trailing silent blocks : No
Null samples used in CRC calculations : Yes
Used interface : Native Win32 interface for Win NT & 2000

Used output format : Internal WAV Routines
Sample format : 44.100 Hz; 16 Bit; Stereo


TOC of the extracted CD

Track | Start | Length | Start sector | End sector
––––––––––––––––––––––––––––-
1 | 0:00.00 | 4:26.06 | 0 | 19955
2 | 4:26.06 | 3:45.40 | 19956 | 36870
3 | 8:11.46 | 4:25.39 | 36871 | 56784
4 | 12:37.10 | 6:02.62 | 56785 | 83996
5 | 18:39.72 | 5:33.36 | 83997 | 109007
6 | 24:13.33 | 4:08.48 | 109008 | 127655
7 | 28:22.06 | 4:13.10 | 127656 | 146640
8 | 32:35.16 | 5:09.57 | 146641 | 169872
9 | 37:44.73 | 3:35.48 | 169873 | 186045
10 | 41:20.46 | 6:09.09 | 186046 | 213729


Range status and errors

Selected range

Filename C:\Users\Meijin\Desktop\ALLexxess\Golden Earring\2017 Complete Studio Recordings (29CD Box Set Universal Music)\1989 Keeper Of The Flame\Golden Earring - Keeper Of The Flame.wav

Peak level 92.6 %
Extraction speed 6.9 X
Range quality 100.0 %
Test CRC 513322A1
Copy CRC 513322A1
Copy OK

No errors occurred


AccurateRip summary

Track 1 accurately ripped (confidence 3) [B4C7277C] (AR v2)
Track 2 accurately ripped (confidence 3) [75980AEF] (AR v2)
Track 3 accurately ripped (confidence 3) [CED901CE] (AR v2)
Track 4 accurately ripped (confidence 3) [1994969D] (AR v2)
Track 5 accurately ripped (confidence 3) [1768A1FB] (AR v2)
Track 6 accurately ripped (confidence 3) [1BC5F6B6] (AR v2)
Track 7 accurately ripped (confidence 3) [44FAD4B9] (AR v2)
Track 8 accurately ripped (confidence 3) [3BE7F230] (AR v2)
Track 9 accurately ripped (confidence 3) [838A69EE] (AR v2)
Track 10 accurately ripped (confidence 3) [C87D0009] (AR v2)

All tracks accurately ripped

End of status report

–– CUETools DB Plugin V2.1.6

[CTDB TOCID: jvKcIxnVzaSFxkzv_s3uGHminWU-] found
Submit result: jvKcIxnVzaSFxkzv_s3uGHminWU- has been confirmed
Track | CTDB Status
1 | (1/1) Accurately ripped
2 | (1/1) Accurately ripped
3 | (1/1) Accurately ripped
4 | (1/1) Accurately ripped
5 | (1/1) Accurately ripped
6 | (1/1) Accurately ripped
7 | (1/1) Accurately ripped
8 | (1/1) Accurately ripped
9 | (1/1) Accurately ripped
10 | (1/1) Accurately ripped


==== Log checksum 49AE0856825A0CD509544ADBC18379298BFE0C0A294581A7C85DC58354F68EAC ====

Golden Earring - The Complete Studio Recordings (2017) [29 CD Box Set] Part 2

Tracklist CD20 - 1991 - Bloody Buccaneers:

01. Making Love To Yourself
02. Temporary Madness
03. Going To The Run
04. Joe
05. Planet Blue
06. Bloody Buccaneers
07. One Shot Away From Paradise
08. When Love Turns To Pain
09. In A Bad Mood
10. Pouring My Heart Out Again

Exact Audio Copy V1.1 from 23. June 2015

EAC extraction logfile from 11. March 2017, 9:57

Golden Earring / Bloody Buccaneers

Used drive : PLEXTOR BD-R PX-B950SA Adapter: 1 ID: 1

Read mode : Secure
Utilize accurate stream : Yes
Defeat audio cache : Yes
Make use of C2 pointers : No

Read offset correction : 6
Overread into Lead-In and Lead-Out : No
Fill up missing offset samples with silence : Yes
Delete leading and trailing silent blocks : No
Null samples used in CRC calculations : Yes
Used interface : Native Win32 interface for Win NT & 2000

Used output format : Internal WAV Routines
Sample format : 44.100 Hz; 16 Bit; Stereo


TOC of the extracted CD

Track | Start | Length | Start sector | End sector
––––––––––––––––––––––––––––-
1 | 0:00.00 | 4:53.36 | 0 | 22010
2 | 4:53.36 | 3:32.08 | 22011 | 37918
3 | 8:25.44 | 3:55.04 | 37919 | 55547
4 | 12:20.48 | 4:36.47 | 55548 | 76294
5 | 16:57.20 | 4:21.35 | 76295 | 95904
6 | 21:18.55 | 4:48.54 | 95905 | 117558
7 | 26:07.34 | 3:42.70 | 117559 | 134278
8 | 29:50.29 | 4:45.67 | 134279 | 155720
9 | 34:36.21 | 5:20.46 | 155721 | 179766
10 | 39:56.67 | 3:59.73 | 179767 | 197764


Range status and errors

Selected range

Filename C:\Users\Meijin\Desktop\ALLexxess\Golden Earring\2017 Complete Studio Recordings (29CD Box Set Universal Music)\1991 Bloody Buccaneers\Golden Earring - Bloody Buccaneers.wav

Peak level 100.0 %
Extraction speed 6.8 X
Range quality 100.0 %
Test CRC 0851736D
Copy CRC 0851736D
Copy OK

No errors occurred


AccurateRip summary

Track 1 accurately ripped (confidence 3) [44D9FEA9] (AR v2)
Track 2 accurately ripped (confidence 3) [F23B76A0] (AR v2)
Track 3 accurately ripped (confidence 3) [99432F37] (AR v2)
Track 4 accurately ripped (confidence 3) [9E12792B] (AR v2)
Track 5 accurately ripped (confidence 3) [468EC8D4] (AR v2)
Track 6 accurately ripped (confidence 3) [24112CB6] (AR v2)
Track 7 accurately ripped (confidence 3) [9F3D705F] (AR v2)
Track 8 accurately ripped (confidence 3) [EA72A630] (AR v2)
Track 9 accurately ripped (confidence 3) [73650EFC] (AR v2)
Track 10 accurately ripped (confidence 3) [ED52E0BE] (AR v2)

All tracks accurately ripped

End of status report

–– CUETools DB Plugin V2.1.6

[CTDB TOCID: zPsbZCE3MEO.98SJeZ4QwHOA8E4-] found
Submit result: zPsbZCE3MEO.98SJeZ4QwHOA8E4- has been confirmed
Track | CTDB Status
1 | (1/1) Accurately ripped
2 | (1/1) Accurately ripped
3 | (1/1) Accurately ripped
4 | (1/1) Accurately ripped
5 | (1/1) Accurately ripped
6 | (1/1) Accurately ripped
7 | (1/1) Accurately ripped
8 | (1/1) Accurately ripped
9 | (1/1) Accurately ripped
10 | (1/1) Accurately ripped


==== Log checksum 7E911FD804839E59DFA7CCD5D9A75D2159E48586A8AF413C06CFE68DEFF0C5F1 ====


Golden Earring - The Complete Studio Recordings (2017) [29 CD Box Set] Part 2

Tracklist CD21 - 1994 - Face It:

01. Angel
02. Hold Me Now
03. Liquid Soul
04. Minute By Minute
05. Johnny Make Believe
06. Space Ship
07. The Unforgettable Dream
08. I Can't Do Without Your Kiss
09. Freedom Won't Last Forever
10. Maximum Make-Up
11. Legalize Telepathy

Exact Audio Copy V1.1 from 23. June 2015

EAC extraction logfile from 11. March 2017, 9:34

Golden Earring / Face It

Used drive : PLEXTOR BD-R PX-B950SA Adapter: 1 ID: 1

Read mode : Secure
Utilize accurate stream : Yes
Defeat audio cache : Yes
Make use of C2 pointers : No

Read offset correction : 6
Overread into Lead-In and Lead-Out : No
Fill up missing offset samples with silence : Yes
Delete leading and trailing silent blocks : No
Null samples used in CRC calculations : Yes
Used interface : Native Win32 interface for Win NT & 2000

Used output format : Internal WAV Routines
Sample format : 44.100 Hz; 16 Bit; Stereo


TOC of the extracted CD

Track | Start | Length | Start sector | End sector
––––––––––––––––––––––––––––-
1 | 0:00.00 | 3:43.46 | 0 | 16770
2 | 3:43.46 | 3:44.23 | 16771 | 33593
3 | 7:27.69 | 4:06.57 | 33594 | 52100
4 | 11:34.51 | 5:08.13 | 52101 | 75213
5 | 16:42.64 | 4:45.56 | 75214 | 96644
6 | 21:28.45 | 2:01.32 | 96645 | 105751
7 | 23:30.02 | 3:52.19 | 105752 | 123170
8 | 27:22.21 | 4:26.00 | 123171 | 143120
9 | 31:48.21 | 3:36.28 | 143121 | 159348
10 | 35:24.49 | 4:42.72 | 159349 | 180570
11 | 40:07.46 | 4:09.12 | 180571 | 199257


Range status and errors

Selected range

Filename C:\Users\Meijin\Desktop\ALLexxess\Golden Earring\2017 Complete Studio Recordings (29CD Box Set Universal Music)\1994 Face It\Golden Earring - Face It.wav

Peak level 100.0 %
Extraction speed 6.9 X
Range quality 100.0 %
Test CRC 6B832958
Copy CRC 6B832958
Copy OK

No errors occurred


AccurateRip summary

Track 1 accurately ripped (confidence 3) [6809AF85] (AR v2)
Track 2 accurately ripped (confidence 3) [AF8E0A11] (AR v2)
Track 3 accurately ripped (confidence 3) [C7252788] (AR v2)
Track 4 accurately ripped (confidence 3) [D3B8344D] (AR v2)
Track 5 accurately ripped (confidence 3) [CE026F2E] (AR v2)
Track 6 accurately ripped (confidence 3) [4A47F9D3] (AR v2)
Track 7 accurately ripped (confidence 3) [0880EFFD] (AR v2)
Track 8 accurately ripped (confidence 3) [88606B43] (AR v2)
Track 9 accurately ripped (confidence 3) [F6BDEFB4] (AR v2)
Track 10 accurately ripped (confidence 3) [0ACFED26] (AR v2)
Track 11 accurately ripped (confidence 3) [A5F38B5D] (AR v2)

All tracks accurately ripped

End of status report

–– CUETools DB Plugin V2.1.6

[CTDB TOCID: cUjw6d3lUnx0BBRnPvQ.c4HMo_Y-] found
Submit result: cUjw6d3lUnx0BBRnPvQ.c4HMo_Y- has been confirmed
Track | CTDB Status
1 | (1/1) Accurately ripped
2 | (1/1) Accurately ripped
3 | (1/1) Accurately ripped
4 | (1/1) Accurately ripped
5 | (1/1) Accurately ripped
6 | (1/1) Accurately ripped
7 | (1/1) Accurately ripped
8 | (1/1) Accurately ripped
9 | (1/1) Accurately ripped
10 | (1/1) Accurately ripped
11 | (1/1) Accurately ripped


==== Log checksum 7944D81B73D6B2D76AE6F6C298327B51F79195CE9BA6B5D8B4DFC8DA1589742E ====


Golden Earring - The Complete Studio Recordings (2017) [29 CD Box Set] Part 2

Tracklist CD22 - 1995 - Love Sweat:

01. When I Was Young
02. Darkness, Darkness
03. Gotta See Jane
04. My Little Red Book
05. Sail On Sailor
06. Motorbikin'
07. I'll Be Back Again
08. This Wheel's On Fire
09. Ballad Of A Thin Man
10. Collage
11. Move Over
12. Who Do You Love
13. Turn The Page

Exact Audio Copy V1.1 from 23. June 2015

EAC extraction logfile from 11. March 2017, 9:12

Golden Earring / Love Sweat

Used drive : PLEXTOR BD-R PX-B950SA Adapter: 1 ID: 1

Read mode : Secure
Utilize accurate stream : Yes
Defeat audio cache : Yes
Make use of C2 pointers : No

Read offset correction : 6
Overread into Lead-In and Lead-Out : No
Fill up missing offset samples with silence : Yes
Delete leading and trailing silent blocks : No
Null samples used in CRC calculations : Yes
Used interface : Native Win32 interface for Win NT & 2000

Used output format : Internal WAV Routines
Sample format : 44.100 Hz; 16 Bit; Stereo


TOC of the extracted CD

Track | Start | Length | Start sector | End sector
––––––––––––––––––––––––––––-
1 | 0:00.00 | 3:11.60 | 0 | 14384
2 | 3:11.60 | 3:56.56 | 14385 | 32140
3 | 7:08.41 | 3:15.45 | 32141 | 46810
4 | 10:24.11 | 2:50.18 | 46811 | 59578
5 | 13:14.29 | 3:21.53 | 59579 | 74706
6 | 16:36.07 | 2:54.17 | 74707 | 87773
7 | 19:30.24 | 3:38.56 | 87774 | 104179
8 | 23:09.05 | 4:01.47 | 104180 | 122301
9 | 27:10.52 | 5:07.41 | 122302 | 145367
10 | 32:18.18 | 3:36.29 | 145368 | 161596
11 | 35:54.47 | 3:45.60 | 161597 | 178531
12 | 39:40.32 | 3:36.52 | 178532 | 194783
13 | 43:17.09 | 5:33.74 | 194784 | 219832


Range status and errors

Selected range

Filename C:\Users\Meijin\Desktop\ALLexxess\Golden Earring\2017 Complete Studio Recordings (29CD Box Set Universal Music)\1995 Love Sweat\Golden Earring - Love Sweat.wav

Peak level 100.0 %
Extraction speed 7.0 X
Range quality 100.0 %
Test CRC 9D24A45B
Copy CRC 9D24A45B
Copy OK

No errors occurred


AccurateRip summary

Track 1 accurately ripped (confidence 2) [52A5F958] (AR v2)
Track 2 accurately ripped (confidence 2) [AB6C10F5] (AR v2)
Track 3 accurately ripped (confidence 2) [A082855B] (AR v2)
Track 4 accurately ripped (confidence 2) [BFE7DDAF] (AR v2)
Track 5 accurately ripped (confidence 2) [ED7C1C33] (AR v2)
Track 6 accurately ripped (confidence 2) [8C68BFEE] (AR v2)
Track 7 accurately ripped (confidence 2) [B772E9F6] (AR v2)
Track 8 accurately ripped (confidence 2) [6E9E0BE3] (AR v2)
Track 9 accurately ripped (confidence 2) [F4D1A2AF] (AR v2)
Track 10 accurately ripped (confidence 2) [2AF10F2E] (AR v2)
Track 11 accurately ripped (confidence 2) [99A51894] (AR v2)
Track 12 accurately ripped (confidence 2) [16AA0062] (AR v2)
Track 13 accurately ripped (confidence 2) [72BB9DAC] (AR v2)

All tracks accurately ripped

End of status report

–– CUETools DB Plugin V2.1.6

[CTDB TOCID: c4b5T876qcgkI.ZGfqkPKZBs4Ig-] found
Submit result: c4b5T876qcgkI.ZGfqkPKZBs4Ig- has been confirmed
Track | CTDB Status
1 | (1/1) Accurately ripped
2 | (1/1) Accurately ripped
3 | (1/1) Accurately ripped
4 | (1/1) Accurately ripped
5 | (1/1) Accurately ripped
6 | (1/1) Accurately ripped
7 | (1/1) Accurately ripped
8 | (1/1) Accurately ripped
9 | (1/1) Accurately ripped
10 | (1/1) Accurately ripped
11 | (1/1) Accurately ripped
12 | (1/1) Accurately ripped
13 | (1/1) Accurately ripped


==== Log checksum 66A71C84E54B082217455E18168A75DBE96D3E23B77602893C0F25D168741C03 ====


Golden Earring - The Complete Studio Recordings (2017) [29 CD Box Set] Part 2

Tracklist CD23 - 1999 - Paradise In Distress:

01. Paradise In Distress
02. Apocalyps
03. Evil Love Chain
04. Darling
05. Take My Hand - Close My Eyes
06. The Fighter
07. One Night Without You
08. Whisper In A Crowd
09. Deja Voodoo
10. Bad News To Fall In Love (With A Mean Motherxxxer)
11. 42nd Street
12. Fluid Conduction
13. Desperately Trying To Be Different
14. Gambler's Blues

Exact Audio Copy V1.1 from 23. June 2015

EAC extraction logfile from 11. March 2017, 8:45

Golden Earring / Paradise In Distress

Used drive : PLEXTOR BD-R PX-B950SA Adapter: 1 ID: 1

Read mode : Secure
Utilize accurate stream : Yes
Defeat audio cache : Yes
Make use of C2 pointers : No

Read offset correction : 6
Overread into Lead-In and Lead-Out : No
Fill up missing offset samples with silence : Yes
Delete leading and trailing silent blocks : No
Null samples used in CRC calculations : Yes
Used interface : Native Win32 interface for Win NT & 2000

Used output format : Internal WAV Routines
Sample format : 44.100 Hz; 16 Bit; Stereo


TOC of the extracted CD

Track | Start | Length | Start sector | End sector
––––––––––––––––––––––––––––-
1 | 0:00.00 | 5:44.70 | 0 | 25869
2 | 5:44.70 | 4:56.23 | 25870 | 48092
3 | 10:41.18 | 4:32.30 | 48093 | 68522
4 | 15:13.48 | 5:21.52 | 68523 | 92649
5 | 20:35.25 | 4:39.58 | 92650 | 113632
6 | 25:15.08 | 7:24.05 | 113633 | 146937
7 | 32:39.13 | 4:35.67 | 146938 | 167629
8 | 37:15.05 | 3:48.73 | 167630 | 184802
9 | 41:04.03 | 5:54.50 | 184803 | 211402
10 | 46:58.53 | 5:10.60 | 211403 | 234712
11 | 52:09.38 | 3:36.10 | 234713 | 250922
12 | 55:45.48 | 4:14.62 | 250923 | 270034
13 | 60:00.35 | 4:06.68 | 270035 | 288552
14 | 64:07.28 | 4:41.47 | 288553 | 309674


Range status and errors

Selected range

Filename C:\Users\Meijin\Desktop\ALLexxess\Golden Earring\2017 Complete Studio Recordings (29CD Box Set Universal Music)\1999 Paradise In Distress\Golden Earring - Paradise In Distress.wav

Peak level 100.0 %
Extraction speed 8.3 X
Range quality 100.0 %
Test CRC 7A4A3929
Copy CRC 7A4A3929
Copy OK

No errors occurred


AccurateRip summary

Track 1 accurately ripped (confidence 2) [C8D936D3] (AR v2)
Track 2 accurately ripped (confidence 2) [13EEF35F] (AR v2)
Track 3 accurately ripped (confidence 2) [B62F513E] (AR v2)
Track 4 accurately ripped (confidence 2) [BFC06505] (AR v2)
Track 5 accurately ripped (confidence 2) [B1B696B0] (AR v2)
Track 6 accurately ripped (confidence 2) [30F5AEEB] (AR v2)
Track 7 accurately ripped (confidence 2) [366FA57F] (AR v2)
Track 8 accurately ripped (confidence 2) [3E688A24] (AR v2)
Track 9 accurately ripped (confidence 2) [88CD562F] (AR v2)
Track 10 accurately ripped (confidence 2) [F01BFA92] (AR v2)
Track 11 accurately ripped (confidence 2) [49688B4F] (AR v2)
Track 12 accurately ripped (confidence 2) [9345BA39] (AR v2)
Track 13 accurately ripped (confidence 2) [A497B483] (AR v2)
Track 14 accurately ripped (confidence 2) [C5E774AA] (AR v2)

All tracks accurately ripped

End of status report

–– CUETools DB Plugin V2.1.6

[CTDB TOCID: owgUppS7.clzn9XmiJZkhGFZiU4-] found
Submit result: owgUppS7.clzn9XmiJZkhGFZiU4- has been confirmed
Track | CTDB Status
1 | (2/2) Accurately ripped
2 | (2/2) Accurately ripped
3 | (2/2) Accurately ripped
4 | (2/2) Accurately ripped
5 | (2/2) Accurately ripped
6 | (2/2) Accurately ripped
7 | (2/2) Accurately ripped
8 | (2/2) Accurately ripped
9 | (2/2) Accurately ripped
10 | (2/2) Accurately ripped
11 | (2/2) Accurately ripped
12 | (2/2) Accurately ripped
13 | (2/2) Accurately ripped
14 | (2/2) Accurately ripped


==== Log checksum 135926EB3F1F3E06BFC389C08DF79FEF3D7647147330E8E1513DF05194225DA5 ====


Golden Earring - The Complete Studio Recordings (2017) [29 CD Box Set] Part 2

Tracklist CD24 - 2003 - Millbrook U.S.A.:

01. The Hammer Of Love
02. Albino Moon
03. Sky Scraper Hell Of A Town
04. A Sound I Never Heard
05. Better Off Dead
06. Colourblind
07. On A Night Like You
08. Kingfisher
09. Coming In Coming Out
10. The Thief
11. Beautiful Blue
12. Love Is A Looser (When Love Comes Around)
13. The Last Frontier Hotel

Exact Audio Copy V1.1 from 23. June 2015

EAC extraction logfile from 11. March 2017, 8:14

Golden Earring / Millbrook U.S.A.

Used drive : PLEXTOR BD-R PX-B950SA Adapter: 1 ID: 1

Read mode : Secure
Utilize accurate stream : Yes
Defeat audio cache : Yes
Make use of C2 pointers : No

Read offset correction : 6
Overread into Lead-In and Lead-Out : No
Fill up missing offset samples with silence : Yes
Delete leading and trailing silent blocks : No
Null samples used in CRC calculations : Yes
Used interface : Native Win32 interface for Win NT & 2000

Used output format : Internal WAV Routines
Sample format : 44.100 Hz; 16 Bit; Stereo


TOC of the extracted CD

Track | Start | Length | Start sector | End sector
––––––––––––––––––––––––––––-
1 | 0:00.00 | 3:46.13 | 0 | 16962
2 | 3:46.13 | 3:54.03 | 16963 | 34515
3 | 7:40.16 | 4:18.05 | 34516 | 53870
4 | 11:58.21 | 4:45.31 | 53871 | 75276
5 | 16:43.52 | 3:55.12 | 75277 | 92913
6 | 20:38.64 | 4:10.58 | 92914 | 111721
7 | 24:49.47 | 3:51.05 | 111722 | 129051
8 | 28:40.52 | 5:19.22 | 129052 | 152998
9 | 33:59.74 | 3:08.74 | 152999 | 167172
10 | 37:08.73 | 3:46.06 | 167173 | 184128
11 | 40:55.04 | 4:10.41 | 184129 | 202919
12 | 45:05.45 | 4:21.15 | 202920 | 222509
13 | 49:26.60 | 3:39.45 | 222510 | 238979


Range status and errors

Selected range

Filename C:\Users\Meijin\Desktop\ALLexxess\Golden Earring\2017 Complete Studio Recordings (29CD Box Set Universal Music)\2003 Millbrook U.S.A\Golden Earring - Millbrook U.S.A..wav

Peak level 96.6 %
Extraction speed 7.3 X
Range quality 100.0 %
Test CRC 2465D0D4
Copy CRC 2465D0D4
Copy OK

No errors occurred


AccurateRip summary

Track 1 accurately ripped (confidence 3) [6C6B8942] (AR v2)
Track 2 accurately ripped (confidence 3) [0C11307F] (AR v2)
Track 3 accurately ripped (confidence 3) [6B4F5D44] (AR v2)
Track 4 accurately ripped (confidence 3) [58D85536] (AR v2)
Track 5 accurately ripped (confidence 3) [0C96A7B7] (AR v2)
Track 6 accurately ripped (confidence 3) [D583CE94] (AR v2)
Track 7 accurately ripped (confidence 3) [A8F033EA] (AR v2)
Track 8 accurately ripped (confidence 3) [6928A350] (AR v2)
Track 9 accurately ripped (confidence 3) [B9274740] (AR v2)
Track 10 accurately ripped (confidence 3) [8BE4986A] (AR v2)
Track 11 accurately ripped (confidence 3) [F4E71429] (AR v2)
Track 12 accurately ripped (confidence 3) [96FA2025] (AR v2)
Track 13 accurately ripped (confidence 3) [C0A4A921] (AR v2)

All tracks accurately ripped

End of status report

–– CUETools DB Plugin V2.1.6

[CTDB TOCID: rkIk0Q3JcAHtTONNDrje7fBRG7Q-] found
Submit result: rkIk0Q3JcAHtTONNDrje7fBRG7Q- has been confirmed
Track | CTDB Status
1 | (24/24) Accurately ripped
2 | (24/24) Accurately ripped
3 | (24/24) Accurately ripped
4 | (24/24) Accurately ripped
5 | (24/24) Accurately ripped
6 | (24/24) Accurately ripped
7 | (24/24) Accurately ripped
8 | (23/24) Accurately ripped
9 | (24/24) Accurately ripped
10 | (24/24) Accurately ripped
11 | (24/24) Accurately ripped
12 | (24/24) Accurately ripped
13 | (24/24) Accurately ripped


==== Log checksum 376097CA5F43DAD93CA0DF169AC17E120BC675412B738B2CF9B46CEC40E01C95 ====


Golden Earring - The Complete Studio Recordings (2017) [29 CD Box Set] Part 2

Tracklist CD25 - 2012 - Tits 'N Ass:

01. Identical
02. Little Time Bomb
03. Cool As It Gets
04. Acrobats And Clowns
05. What Do I Know About Love
06. Still Got The Keys To My First Cadillac
07. Dope Runner
08. This Love
09. Stratosphere
10. Over The Cliff Into The Deep Deep Blue
11. Flowers In The Mud
12. Justin Time
13. Avenue Of Broken Dreams
14. Wanted By Women

Exact Audio Copy V1.1 from 23. June 2015

EAC extraction logfile from 10. March 2017, 18:16

Golden Earring / Tits 'N Ass

Used drive : PLEXTOR BD-R PX-B950SA Adapter: 1 ID: 1

Read mode : Secure
Utilize accurate stream : Yes
Defeat audio cache : Yes
Make use of C2 pointers : No

Read offset correction : 6
Overread into Lead-In and Lead-Out : No
Fill up missing offset samples with silence : Yes
Delete leading and trailing silent blocks : No
Null samples used in CRC calculations : Yes
Used interface : Native Win32 interface for Win NT & 2000

Used output format : Internal WAV Routines
Sample format : 44.100 Hz; 16 Bit; Stereo


TOC of the extracted CD

Track | Start | Length | Start sector | End sector
––––––––––––––––––––––––––––-
1 | 0:00.00 | 3:30.61 | 0 | 15810
2 | 3:30.61 | 3:56.06 | 15811 | 33516
3 | 7:26.67 | 4:14.50 | 33517 | 52616
4 | 11:41.42 | 4:10.00 | 52617 | 71366
5 | 15:51.42 | 4:32.10 | 71367 | 91776
6 | 20:23.52 | 3:49.65 | 91777 | 109016
7 | 24:13.42 | 3:43.09 | 109017 | 125750
8 | 27:56.51 | 4:01.34 | 125751 | 143859
9 | 31:58.10 | 4:37.02 | 143860 | 164636
10 | 36:35.12 | 3:24.49 | 164637 | 179985
11 | 39:59.61 | 4:10.07 | 179986 | 198742
12 | 44:09.68 | 3:46.07 | 198743 | 215699
13 | 47:56.00 | 3:42.45 | 215700 | 232394
14 | 51:38.45 | 4:09.01 | 232395 | 251070


Range status and errors

Selected range

Filename C:\Users\Meijin\Desktop\ALLexxess\Golden Earring\2017 Complete Studio Recordings (29CD Box Set Universal Music)\2012 Tits 'N Ass\Golden Earring - Tits 'N Ass.wav

Peak level 99.9 %
Extraction speed 7.3 X
Range quality 100.0 %
Test CRC 015FB794
Copy CRC 015FB794
Copy OK

No errors occurred


AccurateRip summary

Track 1 accurately ripped (confidence 3) [21B14AE3] (AR v2)
Track 2 accurately ripped (confidence 3) [C1DBC9AC] (AR v2)
Track 3 accurately ripped (confidence 3) [B3ACE73B] (AR v2)
Track 4 accurately ripped (confidence 3) [ADE75F2E] (AR v2)
Track 5 accurately ripped (confidence 3) [F18EDCF2] (AR v2)
Track 6 accurately ripped (confidence 3) [58E11490] (AR v2)
Track 7 accurately ripped (confidence 3) [7912EDFA] (AR v2)
Track 8 accurately ripped (confidence 3) [95E879EC] (AR v2)
Track 9 accurately ripped (confidence 3) [E62CED44] (AR v2)
Track 10 accurately ripped (confidence 3) [4FA06EC0] (AR v2)
Track 11 accurately ripped (confidence 3) [A0AE93A4] (AR v2)
Track 12 accurately ripped (confidence 3) [E32E7004] (AR v2)
Track 13 accurately ripped (confidence 3) [E527F5DE] (AR v2)
Track 14 accurately ripped (confidence 3) [53EAAB14] (AR v2)

All tracks accurately ripped

End of status report

–– CUETools DB Plugin V2.1.6

[CTDB TOCID: peD7TG0krV64oSzGFEwbAwtU3uE-] found
Submit result: peD7TG0krV64oSzGFEwbAwtU3uE- has been confirmed
Track | CTDB Status
1 | (53/56) Accurately ripped, or (3/56) differs in 614 samples @02:41:37,03:07:38-03:07:39,03:11:62-03:11:63
2 | (55/56) Accurately ripped
3 | (55/56) Accurately ripped
4 | (52/56) Accurately ripped, or (3/56) differs in 801 samples @01:40:46-01:40:47,01:50:34-01:50:35,02:36:12-02:36:13,03:19:53-03:19:54
5 | (55/56) Accurately ripped
6 | (55/56) Accurately ripped
7 | (55/56) Accurately ripped
8 | (55/56) Accurately ripped
9 | (55/56) Accurately ripped
10 | (55/56) Accurately ripped
11 | (55/56) Accurately ripped
12 | (55/56) Accurately ripped
13 | (55/56) Accurately ripped
14 | (53/56) Accurately ripped


==== Log checksum 257721D1C3A49DD13F42F44D2B173D6DAB342C76F25DAE33219D34AA8D16BE5A ====


Golden Earring - The Complete Studio Recordings (2017) [29 CD Box Set] Part 2

Tracklist CD26 - 2015 - The Hague:

01. Je Regrette
02. That's Why I Believe In Her
03. My Lips Are Sealed
04. Did I Make You Up
05. Come On Home

Exact Audio Copy V1.1 from 23. June 2015

EAC extraction logfile from 10. March 2017, 17:46

Golden Earring / The Hague

Used drive : PLEXTOR BD-R PX-B950SA Adapter: 1 ID: 1

Read mode : Secure
Utilize accurate stream : Yes
Defeat audio cache : Yes
Make use of C2 pointers : No

Read offset correction : 6
Overread into Lead-In and Lead-Out : No
Fill up missing offset samples with silence : Yes
Delete leading and trailing silent blocks : No
Null samples used in CRC calculations : Yes
Used interface : Native Win32 interface for Win NT & 2000

Used output format : Internal WAV Routines
Sample format : 44.100 Hz; 16 Bit; Stereo


TOC of the extracted CD

Track | Start | Length | Start sector | End sector
––––––––––––––––––––––––––––-
1 | 0:00.00 | 3:48.13 | 0 | 17112
2 | 3:48.13 | 4:10.27 | 17113 | 35889
3 | 7:58.40 | 5:13.70 | 35890 | 59434
4 | 13:12.35 | 4:06.69 | 59435 | 77953
5 | 17:19.29 | 5:08.64 | 77954 | 101117


Range status and errors

Selected range

Filename C:\Users\Meijin\Desktop\ALLexxess\Golden Earring\2017 Complete Studio Recordings (29CD Box Set Universal Music)\2015 The Hague\Golden Earring - The Hague.wav

Peak level 95.2 %
Extraction speed 5.7 X
Range quality 99.9 %
Test CRC CB35127D
Copy CRC CB35127D
Copy OK

No errors occurred


AccurateRip summary

Track 1 accurately ripped (confidence 8) [24C1ED37] (AR v2)
Track 2 accurately ripped (confidence 8) [94BE41F0] (AR v2)
Track 3 accurately ripped (confidence 8) [63B3AA63] (AR v2)
Track 4 accurately ripped (confidence 8) [86BD50C0] (AR v2)
Track 5 accurately ripped (confidence 8) [6E8EA77B] (AR v2)

All tracks accurately ripped

End of status report

–– CUETools DB Plugin V2.1.6

[CTDB TOCID: pWJZssYM7ax3JFzkxEDCQJu8vd8-] found
Submit result: pWJZssYM7ax3JFzkxEDCQJu8vd8- has been confirmed
Track | CTDB Status
1 | (25/25) Accurately ripped
2 | (25/25) Accurately ripped
3 | (25/25) Accurately ripped
4 | (25/25) Accurately ripped
5 | (25/25) Accurately ripped


==== Log checksum E0333F26CE665C7BF2C4DA45649839B3F4814EEE4F2E1165D475FA5B95C8971A ====


Golden Earring - The Complete Studio Recordings (2017) [29 CD Box Set] Part 2

Tracklist CD27 - 2017 - Non-Album Tracks 1:

01. Chunk Of Steel
02. That Day
03. The Words I Need
04. If You Leave Me
05. Waiting For Love
06. Things Go Better
07. Rum And Coca-Cola
08. Daddy Buy Me A Girl
09. What You Gonna Tell
10. Don't Run Too Far
11. Wings
12. Sound Of The Screaming Day
13. She Won't Come To Me
14. Together We Live, Together We Love
15. Dong-Dong-Di-Ki-Di-Gi-Dong
16. Wake Up - Breakfast
17. Where Will I Be
18. It's Alright But I Admit It Could Be Better

Exact Audio Copy V1.1 from 23. June 2015

EAC extraction logfile from 10. March 2017, 17:26

Golden Earrings / Non-Album Tracks 1

Used drive : PLEXTOR BD-R PX-B950SA Adapter: 1 ID: 1

Read mode : Secure
Utilize accurate stream : Yes
Defeat audio cache : Yes
Make use of C2 pointers : No

Read offset correction : 6
Overread into Lead-In and Lead-Out : No
Fill up missing offset samples with silence : Yes
Delete leading and trailing silent blocks : No
Null samples used in CRC calculations : Yes
Used interface : Native Win32 interface for Win NT & 2000

Used output format : Internal WAV Routines
Sample format : 44.100 Hz; 16 Bit; Stereo


TOC of the extracted CD

Track | Start | Length | Start sector | End sector
––––––––––––––––––––––––––––-
1 | 0:00.00 | 2:22.57 | 0 | 10706
2 | 2:22.57 | 2:30.24 | 10707 | 21980
3 | 4:53.06 | 2:13.68 | 21981 | 32023
4 | 7:06.74 | 2:17.50 | 32024 | 42348
5 | 9:24.49 | 2:26.11 | 42349 | 53309
6 | 11:50.60 | 2:47.51 | 53310 | 65885
7 | 14:38.36 | 1:51.02 | 65886 | 74212
8 | 16:29.38 | 2:42.51 | 74213 | 86413
9 | 19:12.14 | 1:43.14 | 86414 | 94152
10 | 20:55.28 | 2:16.06 | 94153 | 104358
11 | 23:11.34 | 2:07.69 | 104359 | 113952
12 | 25:19.28 | 2:53.11 | 113953 | 126938
13 | 28:12.39 | 2:33.00 | 126939 | 138413
14 | 30:45.39 | 3:09.40 | 138414 | 152628
15 | 33:55.04 | 3:02.16 | 152629 | 166294
16 | 36:57.20 | 2:49.27 | 166295 | 178996
17 | 39:46.47 | 3:54.20 | 178997 | 196566
18 | 43:40.67 | 3:40.63 | 196567 | 213129


Range status and errors

Selected range

Filename C:\Users\Meijin\Desktop\ALLexxess\Golden Earring\2017 Complete Studio Recordings (29CD Box Set Universal Music)\2017 Non-Album Tracks 1\Golden Earrings - Non-Album Tracks 1.wav

Peak level 100.0 %
Extraction speed 7.0 X
Range quality 100.0 %
Test CRC 7380F535
Copy CRC 7380F535
Copy OK

No errors occurred


AccurateRip summary

Track 1 accurately ripped (confidence 2) [887A8D42] (AR v2)
Track 2 accurately ripped (confidence 2) [94C99703] (AR v2)
Track 3 accurately ripped (confidence 2) [F2FEA212] (AR v2)
Track 4 accurately ripped (confidence 2) [9F19D7F5] (AR v2)
Track 5 accurately ripped (confidence 2) [57BE022C] (AR v2)
Track 6 accurately ripped (confidence 2) [D94FAA72] (AR v2)
Track 7 accurately ripped (confidence 2) [68074472] (AR v2)
Track 8 accurately ripped (confidence 2) [9B11BB30] (AR v2)
Track 9 accurately ripped (confidence 2) [F21B2BC5] (AR v2)
Track 10 accurately ripped (confidence 2) [7E994AB5] (AR v2)
Track 11 accurately ripped (confidence 2) [A9CB8107] (AR v2)
Track 12 accurately ripped (confidence 2) [D20706C1] (AR v2)
Track 13 accurately ripped (confidence 2) [0CA68996] (AR v2)
Track 14 accurately ripped (confidence 2) [9911F360] (AR v2)
Track 15 accurately ripped (confidence 2) [552FC0A1] (AR v2)
Track 16 accurately ripped (confidence 2) [91958331] (AR v2)
Track 17 accurately ripped (confidence 2) [28E9E649] (AR v2)
Track 18 accurately ripped (confidence 2) [3FD139CA] (AR v2)

All tracks accurately ripped

End of status report

–– CUETools DB Plugin V2.1.6

[CTDB TOCID: Hqav.2PtZ4odeKZn1gQppSRCl2o-] found
Submit result: Hqav.2PtZ4odeKZn1gQppSRCl2o- has been confirmed
Track | CTDB Status
1 | (2/2) Accurately ripped
2 | (2/2) Accurately ripped
3 | (2/2) Accurately ripped
4 | (2/2) Accurately ripped
5 | (2/2) Accurately ripped
6 | (2/2) Accurately ripped
7 | (2/2) Accurately ripped
8 | (2/2) Accurately ripped
9 | (2/2) Accurately ripped
10 | (2/2) Accurately ripped
11 | (2/2) Accurately ripped
12 | (2/2) Accurately ripped
13 | (2/2) Accurately ripped
14 | (2/2) Accurately ripped
15 | (2/2) Accurately ripped
16 | (2/2) Accurately ripped
17 | (2/2) Accurately ripped
18 | (2/2) Accurately ripped


==== Log checksum 4F9F5D3633F8621F4D9CC705FED158D68BC678184E1C3411AC3DB4AAD6080AE0 ====


Golden Earring - The Complete Studio Recordings (2017) [29 CD Box Set] Part 2

Tracklist CD28 - 2017 - Non-Album Tracks 2:

01. Another 45 Miles
02. I Can't Get A Hold On Her
03. Holy Holy Life
04. Jessica
05. Stand By Me
06. The Song Is Over
07. Instant Poetry
08. Lucky Number
09. Babylon
10. I Need Love
11. Can't Talk Now
12. Only A Matter Of Time
13. I Do Rock 'N Roll
14. Triple Treat
15. Annie

Exact Audio Copy V1.1 from 23. June 2015

EAC extraction logfile from 10. March 2017, 17:00

Golden Earring / Non-Album Tracks 2

Used drive : PLEXTOR BD-R PX-B950SA Adapter: 1 ID: 1

Read mode : Secure
Utilize accurate stream : Yes
Defeat audio cache : Yes
Make use of C2 pointers : No

Read offset correction : 6
Overread into Lead-In and Lead-Out : No
Fill up missing offset samples with silence : Yes
Delete leading and trailing silent blocks : No
Null samples used in CRC calculations : Yes
Used interface : Native Win32 interface for Win NT & 2000

Used output format : Internal WAV Routines
Sample format : 44.100 Hz; 16 Bit; Stereo


TOC of the extracted CD

Track | Start | Length | Start sector | End sector
––––––––––––––––––––––––––––-
1 | 0:00.00 | 4:46.00 | 0 | 21449
2 | 4:46.00 | 6:18.57 | 21450 | 49856
3 | 11:04.57 | 3:56.35 | 49857 | 67591
4 | 15:01.17 | 4:35.14 | 67592 | 88230
5 | 19:36.31 | 4:32.00 | 88231 | 108630
6 | 24:08.31 | 4:55.40 | 108631 | 130795
7 | 29:03.71 | 4:57.26 | 130796 | 153096
8 | 34:01.22 | 5:55.00 | 153097 | 179721
9 | 39:56.22 | 4:16.23 | 179722 | 198944
10 | 44:12.45 | 6:29.65 | 198945 | 228184
11 | 50:42.35 | 3:30.48 | 228185 | 243982
12 | 54:13.08 | 2:31.10 | 243983 | 255317
13 | 56:44.18 | 3:44.30 | 255318 | 272147
14 | 60:28.48 | 3:55.38 | 272148 | 289810
15 | 64:24.11 | 4:43.04 | 289811 | 311039


Range status and errors

Selected range

Filename C:\Users\Meijin\Desktop\ALLexxess\Golden Earring\2017 Complete Studio Recordings (29CD Box Set Universal Music)\2017 Non-Album Tracks 2\Golden Earring - Non-Album Tracks 2.wav

Peak level 100.0 %
Extraction speed 8.2 X
Range quality 100.0 %
Test CRC B2060ACC
Copy CRC B2060ACC
Copy OK

No errors occurred


AccurateRip summary

Track 1 accurately ripped (confidence 2) [672F5B87] (AR v2)
Track 2 accurately ripped (confidence 2) [BDF6DA14] (AR v2)
Track 3 accurately ripped (confidence 2) [D525711D] (AR v2)
Track 4 accurately ripped (confidence 2) [58971C5C] (AR v2)
Track 5 accurately ripped (confidence 2) [799928E7] (AR v2)
Track 6 accurately ripped (confidence 2) [00B5B3B3] (AR v2)
Track 7 accurately ripped (confidence 2) [47159DC0] (AR v2)
Track 8 accurately ripped (confidence 2) [D22F8E3F] (AR v2)
Track 9 accurately ripped (confidence 2) [1966D603] (AR v2)
Track 10 accurately ripped (confidence 2) [A5C6FF51] (AR v2)
Track 11 accurately ripped (confidence 2) [77479F80] (AR v2)
Track 12 accurately ripped (confidence 2) [ECE4B617] (AR v2)
Track 13 accurately ripped (confidence 2) [F3C68C40] (AR v2)
Track 14 accurately ripped (confidence 2) [430FB737] (AR v2)
Track 15 accurately ripped (confidence 2) [2B57329C] (AR v2)

All tracks accurately ripped

End of status report

–– CUETools DB Plugin V2.1.6

[CTDB TOCID: antX8F0aNa5YMq5.PUuJ_0mltok-] found
Submit result: antX8F0aNa5YMq5.PUuJ_0mltok- has been confirmed
Track | CTDB Status
1 | (2/2) Accurately ripped
2 | (2/2) Accurately ripped
3 | (2/2) Accurately ripped
4 | (2/2) Accurately ripped
5 | (2/2) Accurately ripped
6 | (2/2) Accurately ripped
7 | (2/2) Accurately ripped
8 | (2/2) Accurately ripped
9 | (2/2) Accurately ripped
10 | (2/2) Accurately ripped
11 | (2/2) Accurately ripped
12 | (2/2) Accurately ripped
13 | (2/2) Accurately ripped
14 | (2/2) Accurately ripped
15 | (2/2) Accurately ripped


==== Log checksum D6C7E1B7F9C862800AA808CD4DB3338F3C0B57D61B8CE7CFED430CC0A8BCED40 ====


Golden Earring - The Complete Studio Recordings (2017) [29 CD Box Set] Part 2

Tracklist CD29 - 2017 - Non-Album Tracks 3:

01. King Dark
02. Shadow Avenue
03. Something Heavy Going Down
04. Gimme A Break
05. You Gun My Love
06. Time Warp
07. Steam Roller
08. Madame Zou Zou
09. So You Want To Be A Rock 'N' Roll Star / L.A. Woman
10. Try A Little Tenderness
11. Burning Stuntman
12. Mood Indigo
13. Miles Away From Nowhere
14. Yes, We're On Fire
15. Gypsy Rose
16. Adrenaline

Exact Audio Copy V1.1 from 23. June 2015

EAC extraction logfile from 10. March 2017, 16:32

Golden Earring / Non-Album Tracks 3

Used drive : PLEXTOR BD-R PX-B950SA Adapter: 1 ID: 1

Read mode : Secure
Utilize accurate stream : Yes
Defeat audio cache : Yes
Make use of C2 pointers : No

Read offset correction : 6
Overread into Lead-In and Lead-Out : No
Fill up missing offset samples with silence : Yes
Delete leading and trailing silent blocks : No
Null samples used in CRC calculations : Yes
Used interface : Native Win32 interface for Win NT & 2000

Used output format : Internal WAV Routines
Sample format : 44.100 Hz; 16 Bit; Stereo


TOC of the extracted CD

Track | Start | Length | Start sector | End sector
––––––––––––––––––––––––––––-
1 | 0:00.00 | 3:35.46 | 0 | 16170
2 | 3:35.46 | 3:54.55 | 16171 | 33775
3 | 7:30.26 | 4:40.12 | 33776 | 54787
4 | 12:10.38 | 4:18.44 | 54788 | 74181
5 | 16:29.07 | 4:00.36 | 74182 | 92217
6 | 20:29.43 | 4:34.44 | 92218 | 112811
7 | 25:04.12 | 4:56.40 | 112812 | 135051
8 | 30:00.52 | 3:45.50 | 135052 | 151976
9 | 33:46.27 | 4:14.45 | 151977 | 171071
10 | 38:00.72 | 3:55.53 | 171072 | 188749
11 | 41:56.50 | 4:04.13 | 188750 | 207062
12 | 46:00.63 | 4:15.00 | 207063 | 226187
13 | 50:15.63 | 3:26.09 | 226188 | 241646
14 | 53:41.72 | 4:56.11 | 241647 | 263857
15 | 58:38.08 | 3:23.34 | 263858 | 279116
16 | 62:01.42 | 4:51.04 | 279117 | 300945


Range status and errors

Selected range

Filename C:\Users\Meijin\Desktop\ALLexxess\Golden Earring\2017 Complete Studio Recordings (29CD Box Set Universal Music)\2017 Non-Album Tracks 3\Golden Earring - Non-Album Tracks 3.wav

Peak level 100.0 %
Extraction speed 8.1 X
Range quality 100.0 %
Test CRC 8F0BA20B
Copy CRC 8F0BA20B
Copy OK

No errors occurred


AccurateRip summary

Track 1 accurately ripped (confidence 2) [1E7CA2B6] (AR v2)
Track 2 accurately ripped (confidence 2) [0D0FA206] (AR v2)
Track 3 accurately ripped (confidence 2) [586D5AC1] (AR v2)
Track 4 accurately ripped (confidence 2) [19440521] (AR v2)
Track 5 accurately ripped (confidence 2) [C9991124] (AR v2)
Track 6 accurately ripped (confidence 2) [8CE8970E] (AR v2)
Track 7 accurately ripped (confidence 2) [5DF7C743] (AR v2)
Track 8 accurately ripped (confidence 2) [4561ECD9] (AR v2)
Track 9 accurately ripped (confidence 2) [D62BEDCA] (AR v2)
Track 10 accurately ripped (confidence 2) [68189F15] (AR v2)
Track 11 accurately ripped (confidence 2) [3A00887F] (AR v2)
Track 12 accurately ripped (confidence 2) [42428F5E] (AR v2)
Track 13 accurately ripped (confidence 2) [D56298E0] (AR v2)
Track 14 accurately ripped (confidence 2) [27036872] (AR v2)
Track 15 accurately ripped (confidence 2) [068469D9] (AR v2)
Track 16 accurately ripped (confidence 2) [7E49751E] (AR v2)

All tracks accurately ripped

End of status report

–– CUETools DB Plugin V2.1.6

[CTDB TOCID: YZbPod0JFu6CT8XsVqfAGki2Wpg-] found
Submit result: YZbPod0JFu6CT8XsVqfAGki2Wpg- has been confirmed
Track | CTDB Status
1 | (2/2) Accurately ripped
2 | (2/2) Accurately ripped
3 | (2/2) Accurately ripped
4 | (2/2) Accurately ripped
5 | (2/2) Accurately ripped
6 | (2/2) Accurately ripped
7 | (2/2) Accurately ripped
8 | (2/2) Accurately ripped
9 | (2/2) Accurately ripped
10 | (2/2) Accurately ripped
11 | (2/2) Accurately ripped
12 | (2/2) Accurately ripped
13 | (2/2) Accurately ripped
14 | (2/2) Accurately ripped
15 | (2/2) Accurately ripped
16 | (2/2) Accurately ripped


==== Log checksum 6777CF12CECDFDAF9D0B1FD26FE0888CAFF781C8AAC83CB3062A63828251DD63 ====


Golden Earring - The Complete Studio Recordings (2017) [29 CD Box Set] Part 2

All thanks go to ALLexxess

Golden Earring in my Blog

Download Golden Earring - The Complete Studio Recordings (2017) [29 CD Box Set] Part 2: