Subcategories

Gong - The Radio Gnome Invisible Trilogy (2015) [4CD Remastered Audiophile Edition Box Set]

Posted By: v3122
Gong - The Radio Gnome Invisible Trilogy (2015) [4CD Remastered Audiophile Edition Box Set]

Gong - The Radio Gnome Invisible Trilogy (2015)
EAC | Flac(Image) + Cue + Log & MP3 CBR 320Kbps
4CD | Charly Records, CHARLY E 178 | ~ 930 or 374 Mb | Scans(png) -> 726 Mb
Psychedelic Rock / Prog Rock

Gong are – and were – a completely indefinable and free-thinking outfit. They are still touring and touching minds, even after the death of founder Daevid Allen but this trilogy of albums was the best music that they ever produced.

Originally this was three separate releases but Charly are releasing all three albums in a triple vinyl / 4CD box set complete with the usual packaging (pictures, memorabilia etc), but the heart of this is the music. Even after all this time it intrigues, questions, puzzles and shocks as well as ever.

The trilogy is a series of progressive rock concept albums consisting of Flying Teapot, Angel's Egg and You, describing the adventures of Zero the Hero, the Good Witch Yoni and the Pot Head Pixies from the Planet Gong, who are green with propellers on their heads, and fly around in teapots.
The band at this time consisting of Allen, Gilli Smyth (The good witch Yoni), Didier Malherbe, Tim Blake, Laurie Allan and Steve Hillage – an incredibly varied and inventive crew who all added to the psych and pixie laden sound.

One of the most satisfying this about these albums, for me, is that there is no defining style – all of the artists in the band had their own direction but somehow they were guided into something that works rather than creating a nihilistic cacophony. I sense the hand of Daevid Allen on the tiller but he never took them in ways that the musicians didn’t want to.

For anyone unfamiliar with the music of Gong it is difficult to describe but the guitars, saxophone, early electronica and trippy imagery of the band defined the deep underground of 1973 – 74.

The remastering of this album – from the original master tapes – is exceptional, pulling details out that just weren’t accessible in the days of the original release. The music was challenging originally but now there is so much more to discover but it feels as though it makes more sense.

This is a great release – as it was in the early seventies – and for anyone who has the originals or who has an interest in underground music this is pretty damn essential listening.

Gong - The Radio Gnome Invisible Trilogy (2015) [4CD Remastered Audiophile Edition Box Set]

Andy Snipper, music-news.com
Gong - The Radio Gnome Invisible Trilogy (2015) [4CD Remastered Audiophile Edition Box Set]


Gong - The Radio Gnome Invisible Trilogy (2015):

Gong - The Radio Gnome Invisible Trilogy (2015) [4CD Remastered Audiophile Edition Box Set]

Tracklist CD1 - 1973 Flying Teapot:

01 Radio Gnome Invisible
02 Flying Teapot
03 The Pot Head Pixies
04 The Octave Doctors & The Crystal Machine
05 Zero The Hero And The Witch's Spell
06 Witch's Song / I Am Your Pussy

Exact Audio Copy V1.1 from 23. June 2015

EAC extraction logfile from 8. January 2016, 10:51

Gong / Radio Gnome Trilogy CD1 Flying Teapot

Used drive : PLEXTOR BD-R PX-B950SA Adapter: 1 ID: 1

Read mode : Secure
Utilize accurate stream : Yes
Defeat audio cache : Yes
Make use of C2 pointers : No

Read offset correction : 6
Overread into Lead-In and Lead-Out : No
Fill up missing offset samples with silence : Yes
Delete leading and trailing silent blocks : No
Null samples used in CRC calculations : Yes
Used interface : Native Win32 interface for Win NT & 2000

Used output format : Internal WAV Routines
Sample format : 44.100 Hz; 16 Bit; Stereo


TOC of the extracted CD

Track | Start | Length | Start sector | End sector
––––––––––––––––––––––––––––-
1 | 0:00.00 | 5:33.49 | 0 | 25023
2 | 5:33.49 | 11:49.44 | 25024 | 78242
3 | 17:23.18 | 3:01.73 | 78243 | 91890
4 | 20:25.16 | 1:59.64 | 91891 | 100879
5 | 22:25.05 | 9:30.09 | 100880 | 143638
6 | 31:55.14 | 5:09.04 | 143639 | 166817


Range status and errors

Selected range

Filename C:\Users\Meijin\Desktop\ALLexxess\Gong\2015 Radio Gnome Invisible Trilogy (4CD Box Set Charly Records)\CD1 1973 Flying Teapot\Gong - Radio Gnome Trilogy CD1 Flying Teapot.wav

Peak level 95.5 %
Extraction speed 3.0 X
Range quality 100.0 %
Test CRC B145075A
Copy CRC B145075A
Copy OK

No errors occurred


AccurateRip summary

Track 1 accurately ripped (confidence 1) [8A889F0C] (AR v2)
Track 2 accurately ripped (confidence 1) [001E29B0] (AR v2)
Track 3 accurately ripped (confidence 1) [22F817E0] (AR v2)
Track 4 accurately ripped (confidence 1) [22B22D9C] (AR v2)
Track 5 accurately ripped (confidence 1) [BBC2E713] (AR v2)
Track 6 accurately ripped (confidence 1) [E32AC031] (AR v2)

All tracks accurately ripped

End of status report

–– CUETools DB Plugin V2.1.6

[CTDB TOCID: 9glDg1JIW8YeZQMw4yzw4R75FqU-] found
Submit result: 9glDg1JIW8YeZQMw4yzw4R75FqU- has been confirmed
Track | CTDB Status
1 | (6/6) Accurately ripped
2 | (6/6) Accurately ripped
3 | (6/6) Accurately ripped
4 | (6/6) Accurately ripped
5 | (6/6) Accurately ripped
6 | (6/6) Accurately ripped


==== Log checksum 81363D9E99977F48853E2DE4C9A08DBB7A26B61D3F97D5FEBBBFA05471C9DD4F ====


foobar2000 1.2.9 / Dynamic Range Meter 1.1.1
log date: 2016-01-16 13:10:39

––––––––––––––––––––––––––––––––––––––––
Analyzed: Gong / Radio Gnome Trilogy CD1 Flying Teapot
––––––––––––––––––––––––––––––––––––––––

DR Peak RMS Duration Track
––––––––––––––––––––––––––––––––––––––––
DR13 -0.40 dB -16.27 dB 5:34 01-Radio Gnome Invisible
DR11 -2.66 dB -16.95 dB 11:50 02-Flying Teapot
DR11 -1.95 dB -14.93 dB 3:02 03-The Pot Head Pixies
DR8 -5.31 dB -19.82 dB 2:00 04-The Octave Doctors And The Crystal Machine
DR11 -2.29 dB -17.46 dB 9:30 05-Zero The Hero And The Witch's Spell
DR12 -0.40 dB -15.83 dB 5:09 06-Witch's Song / I Am Your Pussy
––––––––––––––––––––––––––––––––––––––––

Number of tracks: 6
Official DR value: DR11

Samplerate: 44100 Hz
Channels: 2
Bits per sample: 16
Bitrate: 740 kbps
Codec: FLAC
================================================================================



[CUETools log; Date: 16.01.2016 12:23:27; Version: 2.1.4]
[CTDB TOCID: 9glDg1JIW8YeZQMw4yzw4R75FqU-] found.
Track | CTDB Status
1 | (7/7) Accurately ripped
2 | (7/7) Accurately ripped
3 | (7/7) Accurately ripped
4 | (7/7) Accurately ripped
5 | (7/7) Accurately ripped
6 | (7/7) Accurately ripped
[AccurateRip ID: 0009411f-00309e7e-4408b006] found.
Track [ CRC | V2 ] Status
01 [0c7d953a|8a889f0c] (0+1/1) Accurately ripped
02 [44932eb0|001e29b0] (0+1/1) Accurately ripped
03 [fe7aac3e|22f817e0] (0+1/1) Accurately ripped
04 [5a1740a7|22b22d9c] (0+1/1) Accurately ripped
05 [e106adf4|bbc2e713] (0+1/1) Accurately ripped
06 [7ee69811|e32ac031] (0+1/1) Accurately ripped

Track Peak [ CRC32 ] [W/O NULL] [ LOG ]
– 95,5 [B145075A] [716F2AE6] CRC32
01 95,5 [D70EEE75] [03FBD697]
02 73,6 [2856EF4F] [BFE40ABB]
03 79,8 [92D6F3B2] [ABD8886A]
04 54,2 [4CA4C6D4] [292B1CF9]
05 76,8 [05C3BEAB] [D64EC333]
06 95,5 [E1BB35CC] [D4BF457E]


Gong - The Radio Gnome Invisible Trilogy (2015) [4CD Remastered Audiophile Edition Box Set]

Tracklist CD2 - 1973 Angel's Egg:

01 Other Side Of The Sky
02 Sold To The Highest Buddha
03 Castle In The Clouds
04 Prostitute Poem
05 Givin' My Luv To You
06 Selene
07 Flute Salad
08 Oily Way
09 Outer Temple
10 Inner Temple
11 Percolations
12 Love Is How You Make It
13 I Never Glid Before
14 Eat That Phonebook Coda

Exact Audio Copy V1.1 from 23. June 2015

EAC extraction logfile from 7. January 2016, 20:04

Gong / Radio Gnome Trilogy CD2 Angel's Egg

Used drive : PLEXTOR BD-R PX-B950SA Adapter: 1 ID: 1

Read mode : Secure
Utilize accurate stream : Yes
Defeat audio cache : Yes
Make use of C2 pointers : No

Read offset correction : 6
Overread into Lead-In and Lead-Out : No
Fill up missing offset samples with silence : Yes
Delete leading and trailing silent blocks : No
Null samples used in CRC calculations : Yes
Used interface : Native Win32 interface for Win NT & 2000

Used output format : Internal WAV Routines
Sample format : 44.100 Hz; 16 Bit; Stereo


TOC of the extracted CD

Track | Start | Length | Start sector | End sector
––––––––––––––––––––––––––––-
1 | 0:00.00 | 7:37.50 | 0 | 34324
2 | 7:37.50 | 4:24.28 | 34325 | 54152
3 | 12:02.03 | 1:13.50 | 54153 | 59677
4 | 13:15.53 | 4:53.00 | 59678 | 81652
5 | 18:08.53 | 0:44.68 | 81653 | 85020
6 | 18:53.46 | 3:40.38 | 85021 | 101558
7 | 22:34.09 | 2:09.47 | 101559 | 111280
8 | 24:43.56 | 3:36.24 | 111281 | 127504
9 | 28:20.05 | 1:08.14 | 127505 | 132618
10 | 29:28.19 | 2:33.40 | 132619 | 144133
11 | 32:01.59 | 0:46.02 | 144134 | 147585
12 | 32:47.61 | 3:27.40 | 147586 | 163150
13 | 36:15.26 | 5:35.68 | 163151 | 188343
14 | 41:51.19 | 3:07.61 | 188344 | 202429


Range status and errors

Selected range

Filename C:\Users\Meijin\Desktop\ALLexxess\Gong\2015 Radio Gnome Invisible Trilogy (4CD Box Set Charly Records)\CD2 1973 Angel's Egg\Gong - Radio Gnome Trilogy CD2 Angel's Egg.wav

Peak level 95.4 %
Extraction speed 6.8 X
Range quality 100.0 %
Test CRC F25BAC54
Copy CRC F25BAC54
Copy OK

No errors occurred


AccurateRip summary

Track 1 not present in database
Track 2 not present in database
Track 3 not present in database
Track 4 not present in database
Track 5 not present in database
Track 6 not present in database
Track 7 not present in database
Track 8 not present in database
Track 9 not present in database
Track 10 not present in database
Track 11 not present in database
Track 12 not present in database
Track 13 not present in database
Track 14 not present in database

None of the tracks are present in the AccurateRip database

End of status report

–– CUETools DB Plugin V2.1.6

[CTDB TOCID: fAGD5AyXdqRGX8KWauZNjbwh83Y-] found
Submit result: already submitted
Track | CTDB Status
1 | (6/6) Accurately ripped
2 | (6/6) Accurately ripped
3 | (6/6) Accurately ripped
4 | (6/6) Accurately ripped
5 | (6/6) Accurately ripped
6 | (6/6) Accurately ripped
7 | (6/6) Accurately ripped
8 | (6/6) Accurately ripped
9 | (6/6) Accurately ripped
10 | (6/6) Accurately ripped
11 | (6/6) Accurately ripped
12 | (6/6) Accurately ripped
13 | (6/6) Accurately ripped
14 | (6/6) Accurately ripped


==== Log checksum 421D9107E5C713CAB211DA002BB227632C92C6215E522C604624371B1AA31273 ====


foobar2000 1.2.9 / Dynamic Range Meter 1.1.1
log date: 2016-01-16 13:10:24

––––––––––––––––––––––––––––––––––––––––
Analyzed: Gong / Radio Gnome Trilogy CD2 Angel's Egg
––––––––––––––––––––––––––––––––––––––––

DR Peak RMS Duration Track
––––––––––––––––––––––––––––––––––––––––
DR11 -0.72 dB -16.68 dB 7:38 01-Other Side Of The Sky
DR11 -0.59 dB -13.73 dB 4:24 02-Sold To The Highest Buddha
DR11 -0.69 dB -17.43 dB 1:14 03-Castle In The Clouds
DR11 -0.40 dB -14.14 dB 4:53 04-Prostitute Poem
DR10 -2.52 dB -15.67 dB 0:45 05-Givin' My Luv to You
DR10 -1.78 dB -14.66 dB 3:41 06-Selene
DR8 -4.55 dB -17.58 dB 2:10 07-Flute Salad
DR10 -2.35 dB -14.99 dB 3:36 08-Oily Way
DR10 -2.14 dB -13.93 dB 1:08 09-Outer Temple
DR10 -1.98 dB -14.05 dB 2:34 10-Inner Temple
DR14 -1.61 dB -19.66 dB 0:46 11-Percolations
DR12 -0.89 dB -17.06 dB 3:28 12-Love Is How You Make It
DR11 -0.88 dB -14.54 dB 5:36 13-I Never Glid Before
DR12 -0.96 dB -16.59 dB 3:08 14-Eat That Phonebook Coda
––––––––––––––––––––––––––––––––––––––––

Number of tracks: 14
Official DR value: DR11

Samplerate: 44100 Hz
Channels: 2
Bits per sample: 16
Bitrate: 819 kbps
Codec: FLAC
================================================================================



[CUETools log; Date: 16.01.2016 12:24:57; Version: 2.1.4]
[CTDB TOCID: fAGD5AyXdqRGX8KWauZNjbwh83Y-] found.
Track | CTDB Status
1 | (6/6) Accurately ripped
2 | (6/6) Accurately ripped
3 | (6/6) Accurately ripped
4 | (6/6) Accurately ripped
5 | (6/6) Accurately ripped
6 | (6/6) Accurately ripped
7 | (6/6) Accurately ripped
8 | (6/6) Accurately ripped
9 | (6/6) Accurately ripped
10 | (6/6) Accurately ripped
11 | (6/6) Accurately ripped
12 | (6/6) Accurately ripped
13 | (6/6) Accurately ripped
14 | (6/6) Accurately ripped
[AccurateRip ID: 0018ec9f-00fd81d4-ca0a8b0e] disk not present in database.

Track Peak [ CRC32 ] [W/O NULL] [ LOG ]
– 95,4 [F25BAC54] [174D5675] CRC32
01 92,0 [CC9622E0] [81BFD6C2]
02 93,4 [EBEF28CB] [FB874102]
03 92,3 [B7838091] [41496972]
04 95,4 [F5254DA3] [701481B3]
05 74,7 [5FBB8ADA] [B5BFBA02]
06 81,4 [C16A6A9E] [56518AC1]
07 59,1 [077F9EA5] [2331FD72]
08 76,3 [A03F6242] [468389D4]
09 78,1 [32F837CA] [97C46F6C]
10 79,6 [A76600F7] [9796F7F4]
11 83,1 [028D577D] [A1E951F3]
12 90,2 [76966CB0] [99877422]
13 90,3 [76AB4150] [B7A07307]
14 89,5 [FF067C11] [85066BE9]


Gong - The Radio Gnome Invisible Trilogy (2015) [4CD Remastered Audiophile Edition Box Set]

Tracklist CD3 - 1974 You:

01 Thoughts For Naught
02 A P.H.P's Advice
03 Magick Mother Invocation
04 Master Builder
05 A Sprinkling Of Clouds
06 Perfect Mystery
07 The Isle Of Everywhere
08 You Never Blow Your Trip Forever

Exact Audio Copy V1.1 from 23. June 2015

EAC extraction logfile from 6. January 2016, 19:45

Gong / Radio Gnome Trilogy CD3 You

Used drive : PLEXTOR BD-R PX-B950SA Adapter: 1 ID: 1

Read mode : Secure
Utilize accurate stream : Yes
Defeat audio cache : Yes
Make use of C2 pointers : No

Read offset correction : 6
Overread into Lead-In and Lead-Out : No
Fill up missing offset samples with silence : Yes
Delete leading and trailing silent blocks : No
Null samples used in CRC calculations : Yes
Used interface : Native Win32 interface for Win NT & 2000

Used output format : Internal WAV Routines
Sample format : 44.100 Hz; 16 Bit; Stereo


TOC of the extracted CD

Track | Start | Length | Start sector | End sector
––––––––––––––––––––––––––––-
1 | 0:00.00 | 1:32.31 | 0 | 6930
2 | 1:32.31 | 1:39.24 | 6931 | 14379
3 | 3:11.55 | 2:08.73 | 14380 | 24052
4 | 5:20.53 | 6:15.04 | 24053 | 52181
5 | 11:35.57 | 9:01.52 | 52182 | 92808
6 | 20:37.34 | 2:33.73 | 92809 | 104356
7 | 23:11.32 | 10:21.41 | 104357 | 150972
8 | 33:32.73 | 11:08.17 | 150973 | 201089


Range status and errors

Selected range

Filename C:\Users\Meijin\Desktop\ALLexxess\Gong\2015 Radio Gnome Invisible Trilogy (4CD Box Set Charly Records)\CD3 1974 You\Gong - Radio Gnome Trilogy CD3 You.wav

Peak level 95.5 %
Extraction speed 6.9 X
Range quality 100.0 %
Test CRC 20DDDCB4
Copy CRC 20DDDCB4
Copy OK

No errors occurred


AccurateRip summary

Track 1 not present in database
Track 2 not present in database
Track 3 not present in database
Track 4 not present in database
Track 5 not present in database
Track 6 not present in database
Track 7 not present in database
Track 8 not present in database

None of the tracks are present in the AccurateRip database

End of status report

–– CUETools DB Plugin V2.1.6

[CTDB TOCID: buuZb0BMKOno8rAq5cs7.g_F678-] found
Submit result: buuZb0BMKOno8rAq5cs7.g_F678- has been confirmed
Track | CTDB Status
1 | (5/5) Accurately ripped
2 | (5/5) Accurately ripped
3 | (5/5) Accurately ripped
4 | (5/5) Accurately ripped
5 | (5/5) Accurately ripped
6 | (5/5) Accurately ripped
7 | (5/5) Accurately ripped
8 | (5/5) Accurately ripped


==== Log checksum 00E1CD39D59CA43937F3A1B231FD75F93BB9F5C1A54DDAD08582FBF6E3B13866 ====


foobar2000 1.2.9 / Dynamic Range Meter 1.1.1
log date: 2016-01-16 13:10:08

––––––––––––––––––––––––––––––––––––––––
Analyzed: Gong / Radio Gnome Trilogy CD3 You
––––––––––––––––––––––––––––––––––––––––

DR Peak RMS Duration Track
––––––––––––––––––––––––––––––––––––––––
DR10 -0.42 dB -13.13 dB 1:32 01-Thoughts For Naught
DR12 -0.48 dB -13.54 dB 1:39 02-A P.H.P's Advice
DR10 -2.71 dB -17.77 dB 2:09 03-Magick Mother Invocation
DR10 -1.90 dB -14.28 dB 6:15 04-Master Builder
DR10 -1.65 dB -15.33 dB 9:02 05-A Sprinkling Of Clouds
DR11 -0.40 dB -13.67 dB 2:34 06-Perfect Mystery
DR12 -0.40 dB -13.74 dB 10:22 07-The Isle Of Everywhere
DR12 -0.86 dB -17.56 dB 11:08 08-You Never Blow Your Trip Forever
––––––––––––––––––––––––––––––––––––––––

Number of tracks: 8
Official DR value: DR11

Samplerate: 44100 Hz
Channels: 2
Bits per sample: 16
Bitrate: 846 kbps
Codec: FLAC
================================================================================



[CUETools log; Date: 16.01.2016 12:27:26; Version: 2.1.4]
[CTDB TOCID: buuZb0BMKOno8rAq5cs7.g_F678-] found.
Track | CTDB Status
1 | (6/6) Accurately ripped
2 | (6/6) Accurately ripped
3 | (6/6) Accurately ripped
4 | (6/6) Accurately ripped
5 | (6/6) Accurately ripped
6 | (6/6) Accurately ripped
7 | (6/6) Accurately ripped
8 | (6/6) Accurately ripped
[AccurateRip ID: 0009de77-004801e0-5f0a7908] disk not present in database.

Track Peak [ CRC32 ] [W/O NULL] [ LOG ]
– 95,5 [20DDDCB4] [7E837C5E] CRC32
01 95,2 [AE18B2F6] [E5AB8B28]
02 94,6 [6F3FD61F] [67BF6ACC]
03 73,1 [BE39D361] [1AC92FD4]
04 80,3 [6FFF35CC] [E4A5150D]
05 82,6 [C131C3AE] [C39261AB]
06 95,5 [C24FA264] [0D89BA3A]
07 95,5 [FE177B85] [7B6CA9D8]
08 90,6 [E9FF2A64] [97FCC0DE]


Gong - The Radio Gnome Invisible Trilogy (2015) [4CD Remastered Audiophile Edition Box Set]

Tracklist CD4 - 2015 Est-Ce-Que…?:

01 Flying Teapot (Alternate Mix)
02 Eat That Phonebook Coda (Early Version)
03 Other Side Of The Sky (Single Version)
04 Ooby-Scooby Doomsday Or The D-Day DJ's Got The D.D.T. Blues
05 Love Is How You Make It (Vocal Mix)
06 Est-Ce Que Je Suis?
07 Hip Hypnotise You

Exact Audio Copy V1.1 from 23. June 2015

EAC extraction logfile from 6. January 2016, 19:08

Gong / Radio Gnome Trilogy CD4 Est-Ce-Que

Used drive : PLEXTOR BD-R PX-B950SA Adapter: 1 ID: 1

Read mode : Secure
Utilize accurate stream : Yes
Defeat audio cache : Yes
Make use of C2 pointers : No

Read offset correction : 6
Overread into Lead-In and Lead-Out : No
Fill up missing offset samples with silence : Yes
Delete leading and trailing silent blocks : No
Null samples used in CRC calculations : Yes
Used interface : Native Win32 interface for Win NT & 2000

Used output format : Internal WAV Routines
Sample format : 44.100 Hz; 16 Bit; Stereo


TOC of the extracted CD

Track | Start | Length | Start sector | End sector
––––––––––––––––––––––––––––-
1 | 0:00.00 | 9:27.70 | 0 | 42594
2 | 9:27.70 | 3:07.46 | 42595 | 56665
3 | 12:35.41 | 4:31.51 | 56666 | 77041
4 | 17:07.17 | 5:07.32 | 77042 | 100098
5 | 22:14.49 | 2:28.26 | 100099 | 111224
6 | 24:43.00 | 3:34.01 | 111225 | 127275
7 | 28:17.01 | 3:31.57 | 127276 | 143157


Range status and errors

Selected range

Filename C:\Users\Meijin\Desktop\ALLexxess\Gong\2015 Radio Gnome Invisible Trilogy (4CD Box Set Charly Records)\CD4 2015 Est-Ce-Que\Gong - Radio Gnome Trilogy CD4 Est-Ce-Que.wav

Peak level 95.5 %
Extraction speed 6.4 X
Range quality 100.0 %
Test CRC 801D7D06
Copy CRC 801D7D06
Copy OK

No errors occurred


AccurateRip summary

Track 1 not present in database
Track 2 not present in database
Track 3 not present in database
Track 4 not present in database
Track 5 not present in database
Track 6 not present in database
Track 7 not present in database

None of the tracks are present in the AccurateRip database

End of status report

–– CUETools DB Plugin V2.1.6

[CTDB TOCID: jxr.KErm_kGSB60OY8MrEyT.V90-] found
Submit result: already submitted
Track | CTDB Status
1 | (6/6) Accurately ripped
2 | (6/6) Accurately ripped
3 | (6/6) Accurately ripped
4 | (6/6) Accurately ripped
5 | (6/6) Accurately ripped
6 | (6/6) Accurately ripped
7 | (6/6) Accurately ripped


==== Log checksum F9EB92A35B8BE831919FC265BEBE4680BA36C42D63014DE75D865CFD6B622D87 ====


foobar2000 1.2.9 / Dynamic Range Meter 1.1.1
log date: 2016-01-16 13:09:54

––––––––––––––––––––––––––––––––––––––––
Analyzed: Gong / Radio Gnome Trilogy CD4 Est-Ce-Que
––––––––––––––––––––––––––––––––––––––––

DR Peak RMS Duration Track
––––––––––––––––––––––––––––––––––––––––
DR11 -0.55 dB -16.59 dB 9:28 01-Flying Teapot (Alternate Mix)
DR12 -1.75 dB -17.41 dB 3:08 02-Eat That Phonebook Coda (Early Version)
DR11 -0.40 dB -17.96 dB 4:32 03-Other Side Of The Sky (Single Version)
DR13 -0.40 dB -15.71 dB 5:07 04-Ooby-Scooby Doomsday Or The D-Day DJ's Got The D.D.T. Blues
DR12 -5.73 dB -22.62 dB 2:28 05-Love Is How You Make It (Vocal Mix)
DR10 -1.88 dB -13.30 dB 3:34 06-Est-Ce Que Je Suis?
DR10 -1.92 dB -13.14 dB 3:32 07-Hip Hypnotise You
––––––––––––––––––––––––––––––––––––––––

Number of tracks: 7
Official DR value: DR11

Samplerate: 44100 Hz
Channels: 2
Bits per sample: 16
Bitrate: 723 kbps
Codec: FLAC
================================================================================



[CUETools log; Date: 16.01.2016 12:29:50; Version: 2.1.4]
[CTDB TOCID: jxr.KErm_kGSB60OY8MrEyT.V90-] found.
Track | CTDB Status
1 | (6/6) Accurately ripped
2 | (6/6) Accurately ripped
3 | (6/6) Accurately ripped
4 | (6/6) Accurately ripped
5 | (6/6) Accurately ripped
6 | (6/6) Accurately ripped
7 | (6/6) Accurately ripped
[AccurateRip ID: 000a0a8d-00397c66-6d077407] disk not present in database.

Track Peak [ CRC32 ] [W/O NULL] [ LOG ]
– 95,5 [801D7D06] [1F93D691] CRC32
01 93,9 [D271DE9B] [7DEC808D]
02 81,7 [FBDFAC19] [C490EBBB]
03 95,4 [19B939E9] [67255B44]
04 95,5 [602557A1] [83DC572D]
05 51,6 [840DF76E] [A3E846AE]
06 80,5 [074DECEE] [71A69E2D]
07 80,1 [CC56E9A5] [6275AADC]


Gong - The Radio Gnome Invisible Trilogy (2015) [4CD Remastered Audiophile Edition Box Set]

All thanks go to ALLexxess

Gong in my Blog

Download Gong - The Radio Gnome Invisible Trilogy (2015):