Subcategories

Gounod - Faust - Excerpts ( Doria - Vanzo ) [CD 1997] RE-UP

Posted By: jbglx
Gounod - Faust - Excerpts ( Doria - Vanzo ) [CD 1997]  RE-UP

Charles Gounod - Faust - Opera (Extraits)
Renée Doria - Alain Vanzo - Adrien Legros - Jesus Etcheverry
Choeurs et Orchestre des Concerts Lamoureux
20 Bit Technology Remastering (CD 1997)

EAC Rip | FLAC-TRACKS+CUE+LOG | 1 CD mono | Scans | 62 Min. | 344 MB
Label : Philips / Catalogue : 456602-2 /
Opera Excertps / LP´s Released in 1958

This is French opera at his best, before this authentic style was gone: beautiful silver tones from a now lost period. I bought this record more than 40 years ago and it is still unpassed.With due respect to all other 'Fausts' on record (CD)e.g. with Gedda, Björling etc., this recording represents the former high school of French singing in which every word, every letter is there. In my opinion the only basis for masterclasses on Gounod's Faust. Where does one find a Faust like the great Vanzo, the Mephisto of Adrien le Gros how it should be, a strong, lyrical Valentin by Massard and last but not least a sparkling Renée Doria…..
Such a pity that it is not an integral version of this opera, but also in this highlights edition it is an absolute treasure !
Gounod - Faust - Excerpts ( Doria - Vanzo ) [CD 1997]  RE-UP
Renée Doria & Alain Vanzo
Gounod - Faust - Excerpts ( Doria - Vanzo ) [CD 1997]  RE-UP
Adrien Legros
Gounod - Faust - Excerpts ( Doria - Vanzo ) [CD 1997]  RE-UP
French Opera , music : Chares Gounod , libretto by J. Barbier and M.Carré , after Goethe´s "Faust"
Sung in french.
Recorded in 1958 .
Digital remastering by Olivier Saint-Yves , Studio PolyGram , Antony , France .

Cast :
Faust : Alain Vanzo
Marguerite : Renée Doria
Mephisto : Adrien Legros
Valentin : Robert Massard
Siebel : Francoise Louvay
Choeurs et Orchestre des Concerts Lamoureux
Jesus Etcheverry

Track Listing :
1 Invocation de Valentin : Avant de quitter ces lieux
2 Ronde du Veau d´or
3 Couplets de Siebel : Faites-lui mes aveux
4 Cavatine de Faust : Salut, demeure chaste et pure
5 Ballade du Roi de Thulé et air des bijoux
6 Introduction et duo d´amour : Il se fait tard
7 Sérénade du Méphisto : Vous qui faites l´endormie
8 Trio de la prison : Anges purs, anges radieux
9 Ballet : Les Nubiennes - Adagio - Danse antique - Variations de
Cléopatre - Les Troyennes - Variations du miroir - Danse
de Phryné et bacchanale

Exact Audio Copy V1.0 beta 3 from 29. August 2011

EAC extraction logfile from 14. June 2013, 13:06

Vanzo-Doria-Legros / Gounod-Faust-Extraits

Used drive : SONY DVD RW DRU-840A Adapter: 0 ID: 1

Read mode : Secure
Utilize accurate stream : Yes
Defeat audio cache : Yes
Make use of C2 pointers : No

Read offset correction : 6
Overread into Lead-In and Lead-Out : No
Fill up missing offset samples with silence : Yes
Delete leading and trailing silent blocks : No
Null samples used in CRC calculations : Yes
Used interface : Native Win32 interface for Win NT & 2000
Gap handling : Not detected, thus appended to previous track

Used output format : User Defined Encoder
Selected bitrate : 320 kBit/s
Quality : High
Add ID3 tag : No
Command line compressor : C:\Archivos de programa\Exact Audio Copy\FLAC\FLAC.EXE
Additional command line options : -6 -V -T "ARTIST=%artist%" -T "TITLE=%title%" -T "ALBUM=%albumtitle%" -T "DATE=%year%" -T "TRACKNUMBER=%tracknr%" -T "GENRE=%genre%" -T "COMMENT=%comment%" -T "BAND=%albuminterpret%" -T "ALBUMARTIST=%albuminterpret%" -T "COMPOSER=%composer%" %haslyrics%–tag-from-file=LYRICS="%lyricsfile%"%haslyrics% -T "DISCNUMBER=%cdnumber%" -T "TOTALDISCS=%totalcds%" -T "TOTALTRACKS=%numtracks%" %hascover%–picture="%coverfile%"%hascover% %source% -o %dest%


TOC of the extracted CD

Track | Start | Length | Start sector | End sector
––––––––––––––––––––––––––––-
1 | 0:00.00 | 2:50.60 | 0 | 12809
2 | 2:50.60 | 1:53.67 | 12810 | 21351
3 | 4:44.52 | 2:59.55 | 21352 | 34831
4 | 7:44.32 | 5:49.58 | 34832 | 61064
5 | 13:34.15 | 11:42.42 | 61065 | 113756
6 | 25:16.57 | 15:15.55 | 113757 | 182436
7 | 40:32.37 | 2:38.53 | 182437 | 194339
8 | 43:11.15 | 2:39.05 | 194340 | 206269
9 | 45:50.20 | 16:12.65 | 206270 | 279234


Track 1

Filename E:\MUSIC\My Music\Gounod - Faust - Vanzo - Doria - Extracts\CD\01 Invocation de Valentin - Avant de quitter ces lieux.wav

Peak level 76.0 %
Extraction speed 1.6 X
Track quality 100.0 %
Test CRC 12BB82FC
Copy CRC 12BB82FC
Track not present in AccurateRip database
Copy OK

Track 2

Filename E:\MUSIC\My Music\Gounod - Faust - Vanzo - Doria - Extracts\CD\02 Ronde du Veau d´or.wav

Peak level 95.8 %
Extraction speed 1.5 X
Track quality 100.0 %
Test CRC DBF4AB06
Copy CRC DBF4AB06
Track not present in AccurateRip database
Copy OK

Track 3

Filename E:\MUSIC\My Music\Gounod - Faust - Vanzo - Doria - Extracts\CD\03 Couplets de Siebel - Faites-lui mes aveux.wav

Peak level 62.1 %
Extraction speed 1.8 X
Track quality 100.0 %
Test CRC 04169E33
Copy CRC 04169E33
Track not present in AccurateRip database
Copy OK

Track 4

Filename E:\MUSIC\My Music\Gounod - Faust - Vanzo - Doria - Extracts\CD\04 Cavatine de Faust - Salut, demeure chaste et pure.wav

Peak level 56.0 %
Extraction speed 2.2 X
Track quality 100.0 %
Test CRC A5F3C4C0
Copy CRC A5F3C4C0
Track not present in AccurateRip database
Copy OK

Track 5

Filename E:\MUSIC\My Music\Gounod - Faust - Vanzo - Doria - Extracts\CD\05 Ballade du Roi de Thulé et air des bijoux.wav

Peak level 91.9 %
Extraction speed 2.7 X
Track quality 100.0 %
Test CRC 31B25371
Copy CRC 31B25371
Track not present in AccurateRip database
Copy OK

Track 6

Filename E:\MUSIC\My Music\Gounod - Faust - Vanzo - Doria - Extracts\CD\06 Introduction et duo d´amour - Il se fait tard.wav

Peak level 82.7 %
Extraction speed 3.2 X
Track quality 100.0 %
Test CRC B528AEFF
Copy CRC B528AEFF
Track not present in AccurateRip database
Copy OK

Track 7

Filename E:\MUSIC\My Music\Gounod - Faust - Vanzo - Doria - Extracts\CD\07 Sérénade de Méphisto - Vous qui faites l´endormie.wav

Peak level 65.2 %
Extraction speed 2.1 X
Track quality 99.9 %
Test CRC 3EA1BAE8
Copy CRC 3EA1BAE8
Track not present in AccurateRip database
Copy OK

Track 8

Filename E:\MUSIC\My Music\Gounod - Faust - Vanzo - Doria - Extracts\CD\08 Trio de la prison - Anges purs, anges radieux.wav

Peak level 72.8 %
Extraction speed 2.9 X
Track quality 100.0 %
Test CRC 93C179B4
Copy CRC 93C179B4
Track not present in AccurateRip database
Copy OK

Track 9

Filename E:\MUSIC\My Music\Gounod - Faust - Vanzo - Doria - Extracts\CD\09 Ballet - Les Nubiennes-Adagio-Danse antique-Variations-du miroir-Danse de Phryné et bacchanale.wav

Peak level 99.5 %
Extraction speed 3.8 X
Track quality 100.0 %
Test CRC ED2DDDCA
Copy CRC ED2DDDCA
Track not present in AccurateRip database
Copy OK


None of the tracks are present in the AccurateRip database

No errors occurred

End of status report

==== Log checksum F02C98DAF29A114135FBBC3D5D5313432E1DF1615875C332FACD8F404896B242 ====