Subcategories
Please register here if you want to download anything!

If domain in your address bar is different from the list below
PLEASE LEAVE THAT SITE IMMEDIATELY
❗IT'S A DANGEROUS FAKE❗



Spicy Magazines for Men! ;-)

Grand Funk Railroad - Born To Die (1976) {2003, Remastered Reissue, Japan}

Posted By: popsakov
Grand Funk Railroad - Born To Die (1976) {2003, Remastered Reissue, Japan}

Grand Funk Railroad - Born To Die (1976) {2003, Remastered Reissue, Japan}
EAC Rip | FLAC (Img) + Cue + Log ~ 443 Mb | MP3 CBR320 ~ 141 Mb
Full Scans ~ 50 Mb | RAR 5% Recovery
Classic Rock / Blues Rock / Hard Rock / Psychedelic Rock
Capitol Records / Toshiba-EMI Ltd. #TOCP-67012

Born to Die is the 10th studio album by Grand Funk Railroad, released in 1976. The album's title is considered to be one of the group's more somber, straying away from the upbeat and cocky attitude that was so prevalent on previous albums, such as All the Girls in the World Beware!!! (1974), and focusing on darker musical and lyrical content concerning death, politics, and personal relationships. The title track was written by Farner in memory of his cousin who had died in a motorcycle accident. The more upbeat pop single, "Sally", released on 3 April, was written by Mark Farner for his then love interest, the actress/singer Sally Kellerman.
~ Wiki

The title says it all: Although not steeped in heavy metal riffs or gothic sound effects, this 1976 effort from Grand Funk Railroad creates a mood gloomy enough to rival the darkest moments of Black Sabbath. By this point in their career, the band was feeling run into the ground and this is reflected in the mood of the lyrics: the title track is mournful rumination on the inevitability of death and "I Feel for Your Love" explores the depression created by the end of a relationship. The result is an album that feels like an anomaly in the Grand Funk Railroad catalog: the album's dark mood sits at odds with the group's normally energetic style and, thus, robs it of a lot of its punch. Even though the production is solid and the group's instrumental performance is tight, neither of these elements make it easy to listen to an album of oppressively dreary songs. However, a few bright spots shine through: "Sally" is a country-tinged mid-tempo rocker that highlights Mark Farner's harmonica playing and "Take Me" is a driving, lusty rocker that briefly adds a shot of much-needed energy to the proceedings. Of the gloomier tracks, "Love Is Dyin'" stands out because it applies a strong, guitar-heavy rock melody to its sad sentiments to create a song that is both driving and emotionally affecting. Ultimately, Born to Die is such a grim affair that it may turn off some of the group's fans but it remains an interesting curio for the Grand Funk Railroad completist.

~ Donald A. Guarisco, All Music

***************

Grand Funk Railroad - Born To Die (1976) {2003, Remastered Reissue, Japan}

Track List:

01. Born To Die [5:36]
02. Dues [5:37]
03. Sally [3:17]
04. I Fell For Your Love [4:13]
05. Talk To The People [5:34]
06. Take Me [5:11]
07. Genevieve [6:12]
08. Love Is Dyin' [4:14]
09. Politician [3:55]
10. Good Things [4:37]
Previously Unreleased Bonus Tracks
11. Bare Naked Woman (Live Rehearsal) [3:40]
12. Genevieve (Live Rehearsal) [6:26]

Personnel:
Mark Farner - guitar, vocals
Craig Frost - keyboards, background vocals
Mel Schacher - bass
Don Brewer - drums, percussion, vocals
Jimmy Hall - saxophone, harmonica
Donna Hall -background vocals

Exact Audio Copy V1.3 from 2. September 2016

EAC extraction logfile from 12. April 2019, 4:15

Grand Funk Railroad / Born To Die

Used drive : TSSTcorpCDDVDW TS-L633B Adapter: 1 ID: 0

Read mode : Secure
Utilize accurate stream : Yes
Defeat audio cache : Yes
Make use of C2 pointers : No

Read offset correction : 6
Overread into Lead-In and Lead-Out : No
Fill up missing offset samples with silence : Yes
Delete leading and trailing silent blocks : No
Null samples used in CRC calculations : Yes
Used interface : Native Win32 interface for Win NT & 2000

Used output format : Internal WAV Routines
Sample format : 44.100 Hz; 16 Bit; Stereo


TOC of the extracted CD

Track | Start | Length | Start sector | End sector
––––––––––––––––––––––––––––-
1 | 0:00.00 | 5:35.45 | 0 | 25169
2 | 5:35.45 | 5:36.67 | 25170 | 50436
3 | 11:12.37 | 3:16.65 | 50437 | 65201
4 | 14:29.27 | 4:13.15 | 65202 | 84191
5 | 18:42.42 | 5:33.40 | 84192 | 109206
6 | 24:16.07 | 5:10.60 | 109207 | 132516
7 | 29:26.67 | 6:11.45 | 132517 | 160386
8 | 35:38.37 | 4:14.08 | 160387 | 179444
9 | 39:52.45 | 3:54.67 | 179445 | 197061
10 | 43:47.37 | 4:36.40 | 197062 | 217801
11 | 48:24.02 | 3:39.50 | 217802 | 234276
12 | 52:03.52 | 6:26.08 | 234277 | 263234


Range status and errors

Selected range

Filename F:\Alexharvey\Grand Funk Railroad - Born To Die.wav

Peak level 97.7 %
Extraction speed 2.8 X
Range quality 100.0 %
Test CRC B7EA90F3
Copy CRC B7EA90F3
Copy OK

No errors occurred


AccurateRip summary

Track 1 accurately ripped (confidence 5) [B01A0289] (AR v2)
Track 2 accurately ripped (confidence 5) [180CAFB4] (AR v2)
Track 3 accurately ripped (confidence 5) [B7D74EC1] (AR v2)
Track 4 accurately ripped (confidence 5) [CA8BB0B5] (AR v2)
Track 5 accurately ripped (confidence 5) [8DF792DE] (AR v2)
Track 6 accurately ripped (confidence 5) [A2F3A5DC] (AR v2)
Track 7 accurately ripped (confidence 5) [10D9AC58] (AR v2)
Track 8 accurately ripped (confidence 5) [52367000] (AR v2)
Track 9 accurately ripped (confidence 5) [31D89A88] (AR v2)
Track 10 accurately ripped (confidence 5) [82DA10D0] (AR v2)
Track 11 accurately ripped (confidence 5) [CBB00F18] (AR v2)
Track 12 accurately ripped (confidence 3) [233C6044] (AR v2)

All tracks accurately ripped

End of status report

–– CUETools DB Plugin V2.1.6

[CTDB TOCID: EzVNKboqo3GIjHC767R9sZ1ISks-] found
Submit result: EzVNKboqo3GIjHC767R9sZ1ISks- has been confirmed
Track | CTDB Status
1 | (54/54) Accurately ripped
2 | (54/54) Accurately ripped
3 | (54/54) Accurately ripped
4 | (54/54) Accurately ripped
5 | (54/54) Accurately ripped
6 | (54/54) Accurately ripped
7 | (54/54) Accurately ripped
8 | (54/54) Accurately ripped
9 | (54/54) Accurately ripped
10 | (54/54) Accurately ripped
11 | (54/54) Accurately ripped
12 | (52/54) Accurately ripped


==== Log checksum 01DD1A736D357A4AC1ED2FFAF69E78789336420202E3EC9743F7CCC122A68EFA ====

[CUETools log; Date: 12.04.2019 19:44:21; Version: 2.1.6]
[CTDB TOCID: EzVNKboqo3GIjHC767R9sZ1ISks-] found.
Track | CTDB Status
1 | (55/55) Accurately ripped
2 | (55/55) Accurately ripped
3 | (55/55) Accurately ripped
4 | (55/55) Accurately ripped
5 | (55/55) Accurately ripped
6 | (55/55) Accurately ripped
7 | (55/55) Accurately ripped
8 | (55/55) Accurately ripped
9 | (55/55) Accurately ripped
10 | (55/55) Accurately ripped
11 | (55/55) Accurately ripped
12 | (53/55) Accurately ripped
[AccurateRip ID: 001a3a95-00f3982b-a80db50c] found.
Track [ CRC | V2 ] Status
01 [ab72bf34|b01a0289] (00+05/44) Accurately ripped
02 [8b636336|180cafb4] (00+05/43) Accurately ripped
03 [2cca5ebc|b7d74ec1] (00+05/44) Accurately ripped
04 [024e0b94|ca8bb0b5] (00+05/43) Accurately ripped
05 [805d5673|8df792de] (00+05/43) Accurately ripped
06 [78ff39b5|a2f3a5dc] (00+05/43) Accurately ripped
07 [d8be4898|10d9ac58] (00+05/44) Accurately ripped
08 [0153d8db|52367000] (00+05/44) Accurately ripped
09 [c7fe0823|31d89a88] (00+05/44) Accurately ripped
10 [48a41ccc|82da10d0] (00+05/43) Accurately ripped
11 [68f7ad70|cbb00f18] (00+05/43) Accurately ripped
12 [1bc57a0e|233c6044] (00+03/40) Accurately ripped
Offsetted by -646:
01 [959bf64c] (08/44) Accurately ripped
02 [f4f6d604] (08/43) Accurately ripped
03 [01449854] (08/44) Accurately ripped
04 [1b915e7a] (08/43) Accurately ripped
05 [68fd043d] (08/43) Accurately ripped
06 [c6b671a3] (08/43) Accurately ripped
07 [7e574762] (08/44) Accurately ripped
08 [6f311559] (08/44) Accurately ripped
09 [63958993] (08/44) Accurately ripped
10 [164467c6] (08/43) Accurately ripped
11 [82db7aec] (08/43) Accurately ripped
12 [5419890a] (08/40) Accurately ripped
Offsetted by -474:
01 [7d4e699c] (03/44) Accurately ripped
02 [d4194948] (03/43) Accurately ripped
03 [69962ea4] (03/44) Accurately ripped
04 [ce4d830e] (03/43) Accurately ripped
05 [1e5ec949] (03/43) Accurately ripped
06 [09feeca7] (03/43) Accurately ripped
07 [9bf57a6e] (03/44) Accurately ripped
08 [2972d267] (03/44) Accurately ripped
09 [1d359219] (03/44) Accurately ripped
10 [44f7a572] (03/43) Accurately ripped
11 [c1b5cfb4] (03/43) Accurately ripped
12 [af4e72d2] (03/40) Accurately ripped
Offsetted by -1322:
01 [42854edc] (00/44) No match (V2 was not tested)
02 [4c756458] (00/43) No match (V2 was not tested)
03 [13ec1fe4] (00/44) No match (V2 was not tested)
04 [b6667b5e] (00/43) No match (V2 was not tested)
05 [c9ca2779] (00/43) No match (V2 was not tested)
06 [414046b7] (00/43) No match (V2 was not tested)
07 [0fe3909e] (00/44) No match (V2 was not tested)
08 [5ebf02ac] (00/44) No match (V2 was not tested)
09 [2e95b5fc] (00/44) No match (V2 was not tested)
10 [82721622] (00/43) No match (V2 was not tested)
11 [44639ed4] (00/43) No match (V2 was not tested)
12 [081d5de4] (00/40) No match (V2 was not tested)
Offsetted by -1310:
01 [8e3874ac] (00/44) No match (V2 was not tested)
02 [207dbfbc] (00/43) No match (V2 was not tested)
03 [c7da00b4] (00/44) No match (V2 was not tested)
04 [1c2c2a92] (00/43) No match (V2 was not tested)
05 [001e5ee5] (00/43) No match (V2 was not tested)
06 [c8ec07db] (00/43) No match (V2 was not tested)
07 [17e8a60a] (00/44) No match (V2 was not tested)
08 [c2b77bb7] (00/44) No match (V2 was not tested)
09 [504ebda5] (00/44) No match (V2 was not tested)
10 [a96cbb2e] (00/43) No match (V2 was not tested)
11 [015515dc] (00/43) No match (V2 was not tested)
12 [50e1d23d] (00/40) No match (V2 was not tested)
Offsetted by -682:
01 [b28284dc] (00/44) No match (V2 was not tested)
02 [78ddc3d8] (00/43) No match (V2 was not tested)
03 [e57af5e4] (00/44) No match (V2 was not tested)
04 [ea4050de] (00/43) No match (V2 was not tested)
05 [c6005df9] (00/43) No match (V2 was not tested)
06 [2fb32e37] (00/43) No match (V2 was not tested)
07 [6648071e] (00/44) No match (V2 was not tested)
08 [36ed8a8b] (00/44) No match (V2 was not tested)
09 [5eb3b70d] (00/44) No match (V2 was not tested)
10 [a15478a2] (00/43) No match (V2 was not tested)
11 [4c0715d4] (00/43) No match (V2 was not tested)
12 [58d2ecf2] (00/40) No match (V2 was not tested)
Offsetted by -676:
01 [585c17c4] (00/44) No match (V2 was not tested)
02 [e2e1f18a] (00/43) No match (V2 was not tested)
03 [3f71e64c] (00/44) No match (V2 was not tested)
04 [9d232878] (00/43) No match (V2 was not tested)
05 [e12a79af] (00/43) No match (V2 was not tested)
06 [f3890ec9] (00/43) No match (V2 was not tested)
07 [6a4a91d4] (00/44) No match (V2 was not tested)
08 [026f883e] (00/44) No match (V2 was not tested)
09 [7a977a14] (00/44) No match (V2 was not tested)
10 [b4d1cb28] (00/43) No match (V2 was not tested)
11 [2a7fd158] (00/43) No match (V2 was not tested)
12 [02b406f6] (00/40) No match (V2 was not tested)

Track Peak [ CRC32 ] [W/O NULL] [ LOG ]
– 97,7 [B7EA90F3] [605B8B63] CRC32
01 97,7 [71636104] [458C9B21]
02 97,7 [D79927B9] [313CF663]
03 97,7 [34EFBB98] [9F00CA0A]
04 97,7 [3F58D990] [8A43E335]
05 97,7 [5F3160BF] [6EF4222F]
06 97,7 [0CB725DB] [2AE783CA]
07 97,7 [8343342D] [B45CBA6D]
08 97,7 [ED54701F] [7AAD7E41]
09 97,7 [85234AB1] [93796598]
10 97,7 [288920F2] [6AE5D1A8]
11 94,9 [EE14216B] [FB56AAAB]
12 97,7 [470E8F2A] [8D8587D6]

Grand Funk Railroad - Born To Die (1976) {2003, Remastered Reissue, Japan}

All thanks go to Alexharvey

>>> Grand Funk in my Blog <<<

Download from icerbox.com: