Grateful Dead - UIC Pavillion Chicago April 11th 1987 (2016)

Posted By: Pisulik
Grateful Dead - UIC Pavillion Chicago April 11th 1987 (2016)

Grateful Dead - UIC Pavillion Chicago April 11th 1987 (2016)
EAC Rip | FLAC (Tracks) +cue, log, m3u, artworks - 795 MB | MP3 CBR 320 kbps - 320 MB | 02:18:59
Psychedelic Rock, Classic Rock, Folk Rock | Label: Mojo Filter

High energy, focused show from the 11,000 space of UIC, Chicago. After a rocky '86 the band seem to be finding their groove again. From the Bucket-Sugaree opener through Loser, Touch of Grey, Terrapin & Wharf Rat the vibe is maintained and the sound quality from the WXRT-FM broadcast is top-notch.

TRACKLIST

CD1

01. Hell In A Bucket
02. Sugaree
03. New Minglewood Blues
04. Loser
05. Tons Of Steel
06. Desolation Row
07. Big Railroad Blues
08. The Music Never Stopped
09. Touch Of Grey

Exact Audio Copy V1.2 from 12. August 2016

EAC extraction logfile from 13. October 2017, 19:03

Grateful Dead / UIC Pavillion Chicago April 11th 1987 CD1

Used drive : TSSTcorpCDDVDW SE-S084F Adapter: 1 ID: 1

Read mode : Secure
Utilize accurate stream : Yes
Defeat audio cache : Yes
Make use of C2 pointers : No

Read offset correction : 6
Overread into Lead-In and Lead-Out : No
Fill up missing offset samples with silence : Yes
Delete leading and trailing silent blocks : No
Null samples used in CRC calculations : Yes
Used interface : Native Win32 interface for Win NT & 2000
Gap handling : Appended to previous track

Used output format : User Defined Encoder
Selected bitrate : 1024 kBit/s
Quality : High
Add ID3 tag : No
Command line compressor : C:\Program Files (x86)\Exact Audio Copy\Flac\flac.exe
Additional command line options : -8 -V -T "ARTIST=%artist%" -T "TITLE=%title%" -T "ALBUM=%albumtitle%" -T "DATE=%year%" -T "TRACKNUMBER=%tracknr%" -T "GENRE=%genre%" -T "PERFORMER=%albuminterpret%" -T "COMPOSER=%composer%" %haslyrics%–tag-from-file=LYRICS="%lyricsfile%"%haslyrics% -T "ALBUMARTIST=%albumartist%" -T "DISCNUMBER=%cdnumber%" -T "TOTALDISCS=%totalcds%" -T "TOTALTRACKS=%numtracks%" -T "COMMENT=%comment%" %source% -o %dest%


TOC of the extracted CD

Track | Start | Length | Start sector | End sector
––––––––––––––––––––––––––––-
1 | 0:00.00 | 6:01.63 | 0 | 27137
2 | 6:01.63 | 9:40.44 | 27138 | 70681
3 | 15:42.32 | 7:02.16 | 70682 | 102347
4 | 22:44.48 | 7:25.72 | 102348 | 135794
5 | 30:10.45 | 5:17.04 | 135795 | 159573
6 | 35:27.49 | 10:39.64 | 159574 | 207562
7 | 46:07.38 | 4:35.51 | 207563 | 228238
8 | 50:43.14 | 7:26.00 | 228239 | 261688
9 | 58:09.14 | 6:10.00 | 261689 | 289438


Track 1

Filename C:\Users\ian\Desktop\Grateful Dead - UIC Pavillion Chicago April 11th 1987 (2016) [FLAC] {WXRT-FM Broadcast BOOT}\UIC Pavillion Chicago April 11th 1987 CD1\01 - Hell In A Bucket.wav

Pre-gap length 0:00:02.00

Peak level 94.7 %
Extraction speed 0.9 X
Track quality 99.9 %
Test CRC D5404581
Copy CRC D5404581
Track not present in AccurateRip database
Copy OK

Track 2

Filename C:\Users\ian\Desktop\Grateful Dead - UIC Pavillion Chicago April 11th 1987 (2016) [FLAC] {WXRT-FM Broadcast BOOT}\UIC Pavillion Chicago April 11th 1987 CD1\02 - Sugaree.wav

Peak level 92.7 %
Extraction speed 1.3 X
Track quality 100.0 %
Test CRC B9412758
Copy CRC B9412758
Track not present in AccurateRip database
Copy OK

Track 3

Filename C:\Users\ian\Desktop\Grateful Dead - UIC Pavillion Chicago April 11th 1987 (2016) [FLAC] {WXRT-FM Broadcast BOOT}\UIC Pavillion Chicago April 11th 1987 CD1\03 - New Minglewood Blues.wav

Peak level 95.6 %
Extraction speed 1.4 X
Track quality 100.0 %
Test CRC 2F290F42
Copy CRC 2F290F42
Track not present in AccurateRip database
Copy OK

Track 4

Filename C:\Users\ian\Desktop\Grateful Dead - UIC Pavillion Chicago April 11th 1987 (2016) [FLAC] {WXRT-FM Broadcast BOOT}\UIC Pavillion Chicago April 11th 1987 CD1\04 - Loser.wav

Peak level 94.9 %
Extraction speed 1.5 X
Track quality 100.0 %
Test CRC 17AC865E
Copy CRC 17AC865E
Track not present in AccurateRip database
Copy OK

Track 5

Filename C:\Users\ian\Desktop\Grateful Dead - UIC Pavillion Chicago April 11th 1987 (2016) [FLAC] {WXRT-FM Broadcast BOOT}\UIC Pavillion Chicago April 11th 1987 CD1\05 - Tons Of Steel.wav

Peak level 87.4 %
Extraction speed 1.4 X
Track quality 99.9 %
Test CRC 998BC809
Copy CRC 998BC809
Track not present in AccurateRip database
Copy OK

Track 6

Filename C:\Users\ian\Desktop\Grateful Dead - UIC Pavillion Chicago April 11th 1987 (2016) [FLAC] {WXRT-FM Broadcast BOOT}\UIC Pavillion Chicago April 11th 1987 CD1\06 - Desolation Row.wav

Peak level 87.0 %
Extraction speed 1.8 X
Track quality 100.0 %
Test CRC BEE72058
Copy CRC BEE72058
Track not present in AccurateRip database
Copy OK

Track 7

Filename C:\Users\ian\Desktop\Grateful Dead - UIC Pavillion Chicago April 11th 1987 (2016) [FLAC] {WXRT-FM Broadcast BOOT}\UIC Pavillion Chicago April 11th 1987 CD1\07 - Big Railroad Blues.wav

Peak level 90.7 %
Extraction speed 1.7 X
Track quality 100.0 %
Test CRC 4AF8352A
Copy CRC 4AF8352A
Track not present in AccurateRip database
Copy OK

Track 8

Filename C:\Users\ian\Desktop\Grateful Dead - UIC Pavillion Chicago April 11th 1987 (2016) [FLAC] {WXRT-FM Broadcast BOOT}\UIC Pavillion Chicago April 11th 1987 CD1\08 - The Music Never Stoppe.wav

Peak level 94.6 %
Extraction speed 1.9 X
Track quality 100.0 %
Test CRC D8A0F141
Copy CRC D8A0F141
Track not present in AccurateRip database
Copy OK

Track 9

Filename C:\Users\ian\Desktop\Grateful Dead - UIC Pavillion Chicago April 11th 1987 (2016) [FLAC] {WXRT-FM Broadcast BOOT}\UIC Pavillion Chicago April 11th 1987 CD1\09 - Touch Of Grey.wav

Peak level 95.3 %
Extraction speed 1.9 X
Track quality 100.0 %
Test CRC D74C3B14
Copy CRC D74C3B14
Track not present in AccurateRip database
Copy OK


None of the tracks are present in the AccurateRip database

No errors occurred

End of status report

–– CUETools DB Plugin V2.1.6

[CTDB TOCID: WAPCq7vgAgLss9VWNuDUR28zi1M-] disk not present in database
Submit result: WAPCq7vgAgLss9VWNuDUR28zi1M- has been uploaded


==== Log checksum 202868E9DC2B34BBCDCC4FC3D8D7F9BFB3981DD34C61F2BD02203F7C4325AED7 ====


CD2

01. Man Smart, Woman Smarter
02. Terrapin Station
03. Drums >
04. Space >
05. Truckin' >
06. Wharf Rat >
07. Throwing Stones >
08. Not Fade Away
09. Black Muddy River

Exact Audio Copy V1.2 from 12. August 2016

EAC extraction logfile from 14. October 2017, 10:20

Grateful Dead / UIC Pavillion Chicago April 11th 1987 CD2

Used drive : TSSTcorpCDDVDW SE-S084F Adapter: 1 ID: 1

Read mode : Secure
Utilize accurate stream : Yes
Defeat audio cache : Yes
Make use of C2 pointers : No

Read offset correction : 6
Overread into Lead-In and Lead-Out : No
Fill up missing offset samples with silence : Yes
Delete leading and trailing silent blocks : No
Null samples used in CRC calculations : Yes
Used interface : Native Win32 interface for Win NT & 2000
Gap handling : Appended to previous track

Used output format : User Defined Encoder
Selected bitrate : 1024 kBit/s
Quality : High
Add ID3 tag : No
Command line compressor : C:\Program Files (x86)\Exact Audio Copy\Flac\flac.exe
Additional command line options : -8 -V -T "ARTIST=%artist%" -T "TITLE=%title%" -T "ALBUM=%albumtitle%" -T "DATE=%year%" -T "TRACKNUMBER=%tracknr%" -T "GENRE=%genre%" -T "PERFORMER=%albuminterpret%" -T "COMPOSER=%composer%" %haslyrics%–tag-from-file=LYRICS="%lyricsfile%"%haslyrics% -T "ALBUMARTIST=%albumartist%" -T "DISCNUMBER=%cdnumber%" -T "TOTALDISCS=%totalcds%" -T "TOTALTRACKS=%numtracks%" -T "COMMENT=%comment%" %source% -o %dest%


TOC of the extracted CD

Track | Start | Length | Start sector | End sector
––––––––––––––––––––––––––––-
1 | 0:00.00 | 8:33.36 | 0 | 38510
2 | 8:33.36 | 11:25.03 | 38511 | 89888
3 | 19:58.39 | 6:41.51 | 89889 | 120014
4 | 26:40.15 | 8:02.21 | 120015 | 156185
5 | 34:42.36 | 7:01.16 | 156186 | 187776
6 | 41:43.52 | 8:46.39 | 187777 | 227265
7 | 50:30.16 | 8:22.64 | 227266 | 264979
8 | 58:53.05 | 9:13.41 | 264980 | 306495
9 | 68:06.46 | 6:33.35 | 306496 | 336005


Track 1

Filename C:\Users\ian\Desktop\Grateful Dead - UIC Pavillion Chicago April 11th 1987 (2016) [FLAC] {WXRT-FM Broadcast BOOT}\UIC Pavillion Chicago April 11th 1987 CD2\01 - Man Smart Woman Smarter.wav

Pre-gap length 0:00:02.00

Peak level 94.9 %
Extraction speed 3.2 X
Track quality 100.0 %
Test CRC DBD28C83
Copy CRC DBD28C83
Track not present in AccurateRip database
Copy OK

Track 2

Filename C:\Users\ian\Desktop\Grateful Dead - UIC Pavillion Chicago April 11th 1987 (2016) [FLAC] {WXRT-FM Broadcast BOOT}\UIC Pavillion Chicago April 11th 1987 CD2\02 - Terrapin Station].wav

Pre-gap length 0:00:07.93

Peak level 94.6 %
Extraction speed 3.9 X
Track quality 100.0 %
Test CRC E8226096
Copy CRC E8226096
Track not present in AccurateRip database
Copy OK

Track 3

Filename C:\Users\ian\Desktop\Grateful Dead - UIC Pavillion Chicago April 11th 1987 (2016) [FLAC] {WXRT-FM Broadcast BOOT}\UIC Pavillion Chicago April 11th 1987 CD2\03 - Drums].wav

Peak level 79.9 %
Extraction speed 3.6 X
Track quality 99.9 %
Test CRC 1385B0EB
Copy CRC 1385B0EB
Track not present in AccurateRip database
Copy OK

Track 4

Filename C:\Users\ian\Desktop\Grateful Dead - UIC Pavillion Chicago April 11th 1987 (2016) [FLAC] {WXRT-FM Broadcast BOOT}\UIC Pavillion Chicago April 11th 1987 CD2\04 - Space].wav

Peak level 79.3 %
Extraction speed 4.4 X
Track quality 100.0 %
Test CRC 2C8FE4F5
Copy CRC 2C8FE4F5
Track not present in AccurateRip database
Copy OK

Track 5

Filename C:\Users\ian\Desktop\Grateful Dead - UIC Pavillion Chicago April 11th 1987 (2016) [FLAC] {WXRT-FM Broadcast BOOT}\UIC Pavillion Chicago April 11th 1987 CD2\05 - Truckin].wav

Peak level 75.4 %
Extraction speed 4.7 X
Track quality 100.0 %
Test CRC F51904CD
Copy CRC F51904CD
Track not present in AccurateRip database
Copy OK

Track 6

Filename C:\Users\ian\Desktop\Grateful Dead - UIC Pavillion Chicago April 11th 1987 (2016) [FLAC] {WXRT-FM Broadcast BOOT}\UIC Pavillion Chicago April 11th 1987 CD2\06 - Wharf Rat].wav

Peak level 81.0 %
Extraction speed 4.6 X
Track quality 99.9 %
Test CRC 2961EEE4
Copy CRC 2961EEE4
Track not present in AccurateRip database
Copy OK

Track 7

Filename C:\Users\ian\Desktop\Grateful Dead - UIC Pavillion Chicago April 11th 1987 (2016) [FLAC] {WXRT-FM Broadcast BOOT}\UIC Pavillion Chicago April 11th 1987 CD2\07 - Throwing Stones].wav

Peak level 82.2 %
Extraction speed 5.4 X
Track quality 100.0 %
Test CRC 482677EB
Copy CRC 482677EB
Track not present in AccurateRip database
Copy OK

Track 8

Filename C:\Users\ian\Desktop\Grateful Dead - UIC Pavillion Chicago April 11th 1987 (2016) [FLAC] {WXRT-FM Broadcast BOOT}\UIC Pavillion Chicago April 11th 1987 CD2\08 - Not Fade Away.wav

Peak level 83.3 %
Extraction speed 2.5 X
Track quality 99.8 %
Test CRC 44695752
Copy CRC 44695752
Track not present in AccurateRip database
Copy OK

Track 9

Filename C:\Users\ian\Desktop\Grateful Dead - UIC Pavillion Chicago April 11th 1987 (2016) [FLAC] {WXRT-FM Broadcast BOOT}\UIC Pavillion Chicago April 11th 1987 CD2\09 - Black Muddy River.wav

Peak level 75.4 %
Extraction speed 3.3 X
Track quality 100.0 %
Test CRC FCB24A95
Copy CRC FCB24A95
Track not present in AccurateRip database
Copy OK


None of the tracks are present in the AccurateRip database

No errors occurred

End of status report

–– CUETools DB Plugin V2.1.6

[CTDB TOCID: yJGTEw6kDlEsErGeZYgQjGQiuTA-] disk not present in database
Submit result: yJGTEw6kDlEsErGeZYgQjGQiuTA- has been uploaded


==== Log checksum 004B2329F14ED2292DF1507F65110AC80AA0D65720BC6B1C7673C30A81768E4A ====


All thanks go to the original releaser