Subcategories

Grayceon - Discography [3 Studio Albums] (2007-2011)

Posted By: gribovar
Grayceon - Discography [3 Studio Albums] (2007-2011)

Grayceon - Discography [3 Studio Albums] (2007-2011)
EAC Rip | FLAC (image+.cue+log) - 1,04 GB | MP3 CBR 320 kbps (LAME 3.93) - 390 MB | Covers included
Genre: Progressive Metal/Rock | RAR 3% Rec. | Label: Vendlus Records, Profound Lore Records

Grayceon was formed in 2005 by Max Doyle and Zack Farwell from Walken and Jackie Perez Gratz from Amber Asylum but is also involved with and has played with many bands. They played together and liked the result and decided to keep on going with it and wrote new material. They recorded a demo in 2006 which they sent to several record companies, finally to catch the attention of Vendlus Records through which they released their first s/t album in March 2007.
Grayceon offers something for everyone. Some post-rock textures, some sludge metal (but of a lighter flavor than others in this field), some good old crunchy riffs of metal, and great epics which are amplified in their effect by the magnificent use of the cello by Jackie and the vocal harmonies of Jackie and Max Doyle. The cello and guitar are used both as background and as solo instruments together and alone, which is another interesting aspect of their sound. They have the ability to create compelling music, long epic tracks with mesmerizing textures, alternating between a soft sound to a rapid and even raw sounding part in which the drums go wild and at times beat like in a death metal track. With the tracks in their s/t album, you go on a mental ride (as is one of the song titles) which passes through different emotional states between tracks and within a track (melancholy, pensive, rage and whatever else the music conjures in your mind). While the long 3 tracks have this majestic feel when coming to their occasional chorus, Grayceon still has this subtle raw and free spirit feel to them, which is probably due to the 3 instrument lineup, their unique sound. This goes beyond metal/rock, and the term progressive is therefore, most suitable. The end result is compelling and most of all, beautiful.

Grayceon - Discography [3 Studio Albums] (2007-2011)

Grayceon - Grayceon (2007)
EAC Rip | FLAC (image+.cue+log) - 304 MB | MP3 CBR 320 kbps (LAME 3.93) - 112 MB | Covers (5 MB) included
Genre: Progressive Metal/Rock | RAR 3% Rec. | Label: Vendlus Records (Vend021)

Tracklist:
01. Sounds Like Thunder
02. Song For You
03. Into The Deep
04. Ride

Total time: 45:22

Exact Audio Copy V1.0 beta 1 from 15. November 2010

EAC extraction logfile from 14. March 2011, 13:18

Grayceon / Grayceon

Used drive : PLEXTOR CD-R PX-240A Adapter: 1 ID: 1

Read mode : Secure
Utilize accurate stream : Yes
Defeat audio cache : Yes
Make use of C2 pointers : No

Read offset correction : 6
Overread into Lead-In and Lead-Out : No
Fill up missing offset samples with silence : Yes
Delete leading and trailing silent blocks : No
Null samples used in CRC calculations : Yes
Used interface : Installed external ASPI interface

Used output format : Internal WAV Routines
Sample format : 44.100 Hz; 16 Bit; Stereo


TOC of the extracted CD

Track | Start | Length | Start sector | End sector
––––––––––––––––––––––––––––-
1 | 0:00.00 | 8:53.08 | 0 | 39982
2 | 8:53.08 | 3:54.54 | 39983 | 57586
3 | 12:47.62 | 12:35.07 | 57587 | 114218
4 | 25:22.69 | 19:59.68 | 114219 | 204211


Range status and errors

Selected range

Filename Z:\data\mp3\Seeding Archive\Grayceon\2007-Grayceon\grayceon.wav

Peak level 100.0 %
Extraction speed 3.6 X
Range quality 100.0 %
Test CRC 0F53D20C
Copy CRC 0F53D20C
Copy OK

No errors occurred


AccurateRip summary

Track 1 accurately ripped (confidence 2) [D60E15B3]
Track 2 accurately ripped (confidence 2) [1D46A220]
Track 3 accurately ripped (confidence 2) [87C21AB6]
Track 4 accurately ripped (confidence 2) [67CA89DE]

All tracks accurately ripped

End of status report

[CUETools log; Date: 03.09.2017 0:36:32; Version: 2.1.4]
[CTDB TOCID: yRq48Rdr6vowpsVjIYILlVFF.kA-] found.
Track | CTDB Status
1 | (3/3) Accurately ripped
2 | (3/3) Accurately ripped
3 | (3/3) Accurately ripped
4 | (3/3) Accurately ripped
[AccurateRip ID: 00065901-001a6868-310aa204] found.
Track [ CRC | V2 ] Status
01 [d60e15b3|9e6372fb] (0+2/2) Accurately ripped
02 [1d46a220|592957a4] (0+2/2) Accurately ripped
03 [87c21ab6|3d82a257] (0+2/2) Accurately ripped
04 [67ca89de|d3641bf4] (0+2/2) Accurately ripped

Track Peak [ CRC32 ] [W/O NULL] [ LOG ]
– 100,0 [0F53D20C] [9B1CAFC0] CRC32
01 100,0 [E1CC4611] [A31CFB3F]
02 100,0 [2DFD8371] [0D74B604]
03 99,9 [057858A2] [36AE3F4A]
04 100,0 [1E1830FC] [966A2B0D]

Grayceon - Discography [3 Studio Albums] (2007-2011)

Grayceon - This Grand Show (2008)
EAC Rip | FLAC (image+.cue+log) - 373 MB | MP3 CBR 320 kbps (LAME 3.93) - 142 MB | Covers (8 MB) included
Genre: Progressive Metal/Rock | RAR 3% Rec. | Label: Vendlus Records (Vend035)

Tracklist:
01. It Begins, and So It Ends
02. Still The Desert
03. Sleep
04. Love Is (A Dream)
05. This Grand Show Is Eternal

Total time: 56:39

Exact Audio Copy V1.0 beta 1 from 15. November 2010

EAC extraction logfile from 13. March 2011, 21:39

Grayceon / This Grand Show

Used drive : PLEXTOR CD-R PX-240A Adapter: 1 ID: 1

Read mode : Secure
Utilize accurate stream : Yes
Defeat audio cache : Yes
Make use of C2 pointers : No

Read offset correction : 6
Overread into Lead-In and Lead-Out : No
Fill up missing offset samples with silence : Yes
Delete leading and trailing silent blocks : No
Null samples used in CRC calculations : Yes
Used interface : Installed external ASPI interface

Used output format : Internal WAV Routines
Sample format : 44.100 Hz; 16 Bit; Stereo


TOC of the extracted CD

Track | Start | Length | Start sector | End sector
––––––––––––––––––––––––––––-
1 | 0:00.00 | 4:59.12 | 0 | 22436
2 | 4:59.12 | 11:31.08 | 22437 | 74269
3 | 16:30.20 | 21:15.50 | 74270 | 169944
4 | 37:45.70 | 13:27.32 | 169945 | 230501
5 | 51:13.27 | 5:25.67 | 230502 | 254943


Range status and errors

Selected range

Filename Z:\data\mp3\Seeding Archive\Grayceon\2008-This Grand Show\grandshow.wav

Peak level 98.1 %
Extraction speed 0.7 X
Range quality 100.0 %
Test CRC D9549378
Copy CRC D9549378
Copy OK

No errors occurred


AccurateRip summary

Track 1 accurately ripped (confidence 2) [601C70CE]
Track 2 accurately ripped (confidence 2) [AE57FD50]
Track 3 accurately ripped (confidence 2) [A4FE75A0]
Track 4 accurately ripped (confidence 2) [17F7592B]
Track 5 accurately ripped (confidence 2) [B04A70D3]

All tracks accurately ripped

End of status report

[CUETools log; Date: 03.09.2017 0:37:58; Version: 2.1.4]
[CTDB TOCID: XKqzhNlUyFBCwFQaIertf29AF.Y-] found.
Track | CTDB Status
1 | (5/5) Accurately ripped
2 | (5/5) Accurately ripped
3 | (5/5) Accurately ripped
4 | (5/5) Accurately ripped
5 | (5/5) Accurately ripped
[AccurateRip ID: 000b79e2-00376247-3a0d4705] found.
Track [ CRC | V2 ] Status
01 [601c70ce|c04aedd5] (3+0/3) Accurately ripped
02 [ae57fd50|69b384ff] (3+0/3) Accurately ripped
03 [a4fe75a0|fb74db99] (3+0/3) Accurately ripped
04 [17f7592b|d4f801ac] (3+0/3) Accurately ripped
05 [b04a70d3|61b3ed97] (3+0/3) Accurately ripped

Track Peak [ CRC32 ] [W/O NULL] [ LOG ]
– 98,1 [D9549378] [2AA1C354] CRC32
01 97,7 [3B1D9A01] [8003CDAC]
02 97,7 [909C7B1A] [6BA299A2]
03 97,7 [7ED8D505] [E3AC9019]
04 97,7 [6F2A4591] [C62B3030]
05 98,1 [514EC17B] [32548760]

Grayceon - Discography [3 Studio Albums] (2007-2011)

Grayceon - All We Destroy (2011)
EAC Rip | FLAC (image+.cue+log) - 370 MB | MP3 CBR 320 kbps (LAME 3.93) - 136 MB | Covers (16 MB) included
Genre: Progressive Metal/Rock | RAR 3% Rec. | Label: Profound Lore Records (PFL 073)

Tracklist:
01. Dreamer Deceived
02. Shellmounds
03. We Can
04. Once A Shadow
05. A Road Less Traveled
06. War's End

Total time: 50:58

Exact Audio Copy V1.0 beta 1 from 15. November 2010

EAC extraction logfile from 24. February 2011, 11:44

Grayceon / All We Destroy

Used drive : TSSTcorpCDRWDVD TS-H492C Adapter: 0 ID: 0

Read mode : Secure
Utilize accurate stream : Yes
Defeat audio cache : Yes
Make use of C2 pointers : No

Read offset correction : 6
Overread into Lead-In and Lead-Out : No
Fill up missing offset samples with silence : Yes
Delete leading and trailing silent blocks : No
Null samples used in CRC calculations : Yes
Used interface : Native Win32 interface for Win NT & 2000

Used output format : User Defined Encoder
Selected bitrate : 768 kBit/s
Quality : High
Add ID3 tag : No
Command line compressor : C:\Program Files\Exact Audio Copy\FLAC\FLAC.EXE
Additional command line options : –best -V -T "ARTIST=%a" -T "TITLE=%t" -T "ALBUM=%g" -T "DATE=%y" -T "TRACKNUMBER=%n" -T "GENRE=%m" -T "COMMENT=%e" %j–picture="%i"%j %s -o %d


TOC of the extracted CD

Track | Start | Length | Start sector | End sector
––––––––––––––––––––––––––––-
1 | 0:00.00 | 6:21.38 | 0 | 28612
2 | 6:21.38 | 8:53.31 | 28613 | 68618
3 | 15:14.69 | 17:00.20 | 68619 | 145138
4 | 32:15.14 | 7:22.23 | 145139 | 178311
5 | 39:37.37 | 4:11.39 | 178312 | 197175
6 | 43:49.01 | 7:09.15 | 197176 | 229365


Range status and errors

Selected range

Filename C:\TEMP\Grayceon - All We Destroy\All We Destroy.wav

Peak level 96.4 %
Extraction speed 0.6 X
Range quality 100.0 %
Test CRC 09F7F9DC
Copy CRC 09F7F9DC
Copy OK

No errors occurred


AccurateRip summary

Track 1 not present in database
Track 2 not present in database
Track 3 not present in database
Track 4 not present in database
Track 5 not present in database
Track 6 not present in database

None of the tracks are present in the AccurateRip database

End of status report

[CUETools log; Date: 03.09.2017 0:38:32; Version: 2.1.4]
[CTDB TOCID: YG0fFrUTlrCTYlTwzUCrUiyVEH4-] found.
Track | CTDB Status
1 | (6/6) Accurately ripped
2 | (6/6) Accurately ripped
3 | (6/6) Accurately ripped
4 | (6/6) Accurately ripped
5 | (6/6) Accurately ripped
6 | (6/6) Accurately ripped
[AccurateRip ID: 000ced79-0045072a-550bf206] found.
Track [ CRC | V2 ] Status
01 [aa442759|f8eb2496] (2+2/4) Accurately ripped
02 [e665bd70|827cb108] (2+2/4) Accurately ripped
03 [2f075a65|1bccd60b] (2+2/4) Accurately ripped
04 [df6b3846|cefd994b] (2+2/4) Accurately ripped
05 [4cb3750a|abd89d2a] (2+2/4) Accurately ripped
06 [c42e856a|8491aa89] (2+2/4) Accurately ripped

Track Peak [ CRC32 ] [W/O NULL] [ LOG ]
– 96,4 [09F7F9DC] [D373C2EE] CRC32
01 95,1 [EF67686B] [1864DE94]
02 96,4 [F43ED043] [5AA4318B]
03 96,3 [696CADEF] [6BE5CA8B]
04 95,2 [6103BBC5] [F0FD0EB9]
05 95,0 [2C2E8D60] [5672EF93]
06 94,5 [A38E9F62] [02BE9CCC]

Thanks to hexonut