Subcategories

Great White - Ready For Rock 'N' Roll (2012)

Posted By: popsakov
Great White - Ready For Rock 'N' Roll (2012)

Great White - Ready For Rock 'N' Roll (2012){
EAC Rip | FLAC (Img) + Cue + Log ~ 363 Mb | MP3 CBR320 ~ 127 Mb
Scans Included (JPG, 300 dpi) | RAR 5% Recovery
Hard Rock | Collectors Dream Records #CDR DP0008

The twelve song Ready for Rock 'n' Roll disc is a repackaged collection of covers from days gone by, before Great White splintered into a pair of rival groups. "Sin City" starts that remake action, which includes a cool medley entitled "Bitches and Other Women".

***************

Great White - Ready For Rock 'N' Roll (2012)

Track List:

01. Sin City (AC/DC) [4:42]
02. Love Removal Machine (The Cult) [4:33]
03. Ain't No Way To Treat A Lady (Q5) [2:37]
04. Ready For Love (Mott the Hoople) [4:44]
05. Bitches And Other Women (The Rolling Stones) [4:53]
06. Again And Again (Status Quo) [3:42]
07. Down To The Doctor (Dr. Feelgood) [3:41]
08. Tangled Up In Blue (Bob Dylan) [5:58]
09. Burning House of Love (X) [3:55]
10. Fire And Water (Free) [3:40]
11. No Matter What (Badfinger) [2:48]
12. Lady Love (Robin Trower) [3:13]

Personnel:
Bass – Tony Montana
Drums – Audie Desbrow
Guitar, Keyboards, Backing Vocals – Michael Lardie
Lead Guitar, Backing Vocals – Mark Kendall
Lead Vocals, Backing Vocals – Jack Russell
Saxophone – Clarence Clemons (tracks: 7)

Exact Audio Copy V1.1 from 23. June 2015

EAC extraction logfile from 6. June 2016, 23:38

Great White / Ready For Rock 'N' Roll

Used drive : Optiarc DVD RW AD-7283S Adapter: 1 ID: 1

Read mode : Secure
Utilize accurate stream : Yes
Defeat audio cache : Yes
Make use of C2 pointers : No

Read offset correction : 48
Overread into Lead-In and Lead-Out : No
Fill up missing offset samples with silence : Yes
Delete leading and trailing silent blocks : No
Null samples used in CRC calculations : Yes
Used interface : Native Win32 interface for Win NT & 2000
Gap handling : Appended to previous track

Used output format : User Defined Encoder
Selected bitrate : 128 kBit/s
Quality : High
Add ID3 tag : No
Command line compressor : C:\Program Files (x86)\Exact Audio Copy\Flac\flac.exe
Additional command line options : -V -8 -T "Genre=%genre%" -T "Artist=%artist%" -T "Title=%title%" -T "Album=%albumtitle%" -T "Date=%year%" -T "Tracknumber=%tracknr%" -T "Comment=%comment%" %source%


TOC of the extracted CD

Track | Start | Length | Start sector | End sector
––––––––––––––––––––––––––––-
1 | 0:00.00 | 4:44.05 | 0 | 21304
2 | 4:44.05 | 4:34.59 | 21305 | 41913
3 | 9:18.64 | 2:39.12 | 41914 | 53850
4 | 11:58.01 | 4:45.60 | 53851 | 75285
5 | 16:43.61 | 4:54.39 | 75286 | 97374
6 | 21:38.25 | 3:43.72 | 97375 | 114171
7 | 25:22.22 | 3:42.50 | 114172 | 130871
8 | 29:04.72 | 6:00.22 | 130872 | 157893
9 | 35:05.19 | 3:57.17 | 157894 | 175685
10 | 39:02.36 | 3:41.52 | 175686 | 192312
11 | 42:44.13 | 2:50.34 | 192313 | 205096
12 | 45:34.47 | 3:12.52 | 205097 | 219548


Track 1

Filename I:\Great White\Great White - 2012 - Ready For Rock 'N' Rolll (Collectors Dream CDR DP0008 Germany)\01 Sin City (AC,DC).wav

Pre-gap length 0:00:02.00

Peak level 98.9 %
Extraction speed 4.8 X
Track quality 100.0 %
Test CRC 36DEC722
Copy CRC 36DEC722
Accurately ripped (confidence 1) [159C3233] (AR v2)
Copy OK

Track 2

Filename I:\Great White\Great White - 2012 - Ready For Rock 'N' Rolll (Collectors Dream CDR DP0008 Germany)\02 Love Removal Machine (The Cult).wav

Pre-gap length 0:00:02.00

Peak level 98.9 %
Extraction speed 5.3 X
Track quality 100.0 %
Test CRC DB9D8498
Copy CRC DB9D8498
Accurately ripped (confidence 1) [E470E4FF] (AR v2)
Copy OK

Track 3

Filename I:\Great White\Great White - 2012 - Ready For Rock 'N' Rolll (Collectors Dream CDR DP0008 Germany)\03 Ain't No Way To Treat A Lady (Q5).wav

Pre-gap length 0:00:02.00

Peak level 98.9 %
Extraction speed 5.3 X
Track quality 100.0 %
Test CRC B929B9AA
Copy CRC B929B9AA
Accurately ripped (confidence 1) [083B0850] (AR v2)
Copy OK

Track 4

Filename I:\Great White\Great White - 2012 - Ready For Rock 'N' Rolll (Collectors Dream CDR DP0008 Germany)\04 Ready For Love (Mott the Hoople).wav

Pre-gap length 0:00:02.00

Peak level 98.9 %
Extraction speed 6.1 X
Track quality 100.0 %
Test CRC 7A3CEA72
Copy CRC 7A3CEA72
Accurately ripped (confidence 1) [33FF492B] (AR v2)
Copy OK

Track 5

Filename I:\Great White\Great White - 2012 - Ready For Rock 'N' Rolll (Collectors Dream CDR DP0008 Germany)\05 Bitches And Other Women (The Rolling Stones).wav

Pre-gap length 0:00:02.00

Peak level 98.8 %
Extraction speed 6.6 X
Track quality 100.0 %
Test CRC C377AAE6
Copy CRC C377AAE6
Accurately ripped (confidence 1) [26B8C171] (AR v2)
Copy OK

Track 6

Filename I:\Great White\Great White - 2012 - Ready For Rock 'N' Rolll (Collectors Dream CDR DP0008 Germany)\06 Again And Again (Status Quo).wav

Pre-gap length 0:00:02.00

Peak level 98.9 %
Extraction speed 6.7 X
Track quality 100.0 %
Test CRC 7369B59B
Copy CRC 7369B59B
Accurately ripped (confidence 1) [867157DF] (AR v2)
Copy OK

Track 7

Filename I:\Great White\Great White - 2012 - Ready For Rock 'N' Rolll (Collectors Dream CDR DP0008 Germany)\07 Down To The Doctor (Dr. Feelgood).wav

Pre-gap length 0:00:02.00

Peak level 98.8 %
Extraction speed 7.0 X
Track quality 100.0 %
Test CRC 6788AADA
Copy CRC 6788AADA
Accurately ripped (confidence 1) [FB339243] (AR v2)
Copy OK

Track 8

Filename I:\Great White\Great White - 2012 - Ready For Rock 'N' Rolll (Collectors Dream CDR DP0008 Germany)\08 Tangled Up In Blue (Bob Dylan).wav

Pre-gap length 0:00:02.00

Peak level 95.5 %
Extraction speed 7.7 X
Track quality 100.0 %
Test CRC 8D35A95D
Copy CRC 8D35A95D
Accurately ripped (confidence 1) [EA6D4B10] (AR v2)
Copy OK

Track 9

Filename I:\Great White\Great White - 2012 - Ready For Rock 'N' Rolll (Collectors Dream CDR DP0008 Germany)\09 Burning House of Love (X).wav

Pre-gap length 0:00:02.00

Peak level 98.8 %
Extraction speed 7.7 X
Track quality 100.0 %
Test CRC 393A7BFC
Copy CRC 393A7BFC
Accurately ripped (confidence 1) [F2DAD855] (AR v2)
Copy OK

Track 10

Filename I:\Great White\Great White - 2012 - Ready For Rock 'N' Rolll (Collectors Dream CDR DP0008 Germany)\10 Fire And Water (Free).wav

Pre-gap length 0:00:02.00

Peak level 98.8 %
Extraction speed 7.9 X
Track quality 100.0 %
Test CRC 91FE6D74
Copy CRC 91FE6D74
Accurately ripped (confidence 1) [7F1F992D] (AR v2)
Copy OK

Track 11

Filename I:\Great White\Great White - 2012 - Ready For Rock 'N' Rolll (Collectors Dream CDR DP0008 Germany)\11 No Matter What (Badfinger).wav

Pre-gap length 0:00:02.00

Peak level 98.9 %
Extraction speed 7.7 X
Track quality 100.0 %
Test CRC 3E885948
Copy CRC 3E885948
Accurately ripped (confidence 1) [A5F9CC56] (AR v2)
Copy OK

Track 12

Filename I:\Great White\Great White - 2012 - Ready For Rock 'N' Rolll (Collectors Dream CDR DP0008 Germany)\12 Lady Love (Robin Trower).wav

Pre-gap length 0:00:02.00

Peak level 98.9 %
Extraction speed 8.1 X
Track quality 100.0 %
Test CRC 8F659485
Copy CRC 8F659485
Accurately ripped (confidence 1) [80D72F32] (AR v2)
Copy OK


All tracks accurately ripped

No errors occurred

End of status report

–– CUETools DB Plugin V2.1.6

[CTDB TOCID: R8jQ7WvwkdK7MMbHlF8p89n1r8c-] found
Submit result: R8jQ7WvwkdK7MMbHlF8p89n1r8c- has been confirmed
Track | CTDB Status
1 | (1/1) Accurately ripped
2 | (1/1) Accurately ripped
3 | (1/1) Accurately ripped
4 | (1/1) Accurately ripped
5 | (1/1) Accurately ripped
6 | (1/1) Accurately ripped
7 | (1/1) Accurately ripped
8 | (1/1) Accurately ripped
9 | (1/1) Accurately ripped
10 | (1/1) Accurately ripped
11 | (1/1) Accurately ripped
12 | (1/1) Accurately ripped


==== Log checksum 05F1EB7440FFC47542277093274CB8816174B66A12732EA9FBCC32C8D63C1F7F ====

foobar2000 1.3.16 / Dynamic Range Meter 1.1.1
log date: 2018-02-18 02:24:10

––––––––––––––––––––––––––––––––––––––––
Analyzed: Great White / Ready For Rock 'N' Roll
––––––––––––––––––––––––––––––––––––––––

DR Peak RMS Duration Track
––––––––––––––––––––––––––––––––––––––––
DR8 -0.10 dB -8.91 dB 4:44 01-Sin City (AC/DC)
DR8 -0.10 dB -9.34 dB 4:35 02-Love Removal Machine (The Cult)
DR7 -0.10 dB -7.88 dB 2:39 03-Ain't No Way To Treat A Lady (Q5)
DR8 -0.10 dB -9.42 dB 4:46 04-Ready For Love (Mott the Hoople)
DR8 -0.10 dB -10.76 dB 4:55 05-Bitches And Other Women (The Rolling Stones)
DR9 -0.10 dB -9.46 dB 3:44 06-Again And Again (Status Quo)
DR8 -0.10 dB -9.76 dB 3:43 07-Down To The Doctor (Dr. Feelgood)
DR8 -0.40 dB -9.49 dB 6:00 08-Tangled Up In Blue (Bob Dylan)
DR7 -0.10 dB -8.20 dB 3:57 09-Burning House of Love (X)
DR8 -0.10 dB -9.65 dB 3:42 10-Fire And Water (Free)
DR8 -0.10 dB -9.11 dB 2:50 11-No Matter What (Badfinger)
DR9 -0.10 dB -10.49 dB 3:13 12-Lady Love (Robin Trower)
––––––––––––––––––––––––––––––––––––––––

Number of tracks: 12
Official DR value: DR8

Samplerate: 44100 Hz
Channels: 2
Bits per sample: 16
Bitrate: 964 kbps
Codec: FLAC
================================================================================

[CUETools log; Date: 18.02.2018 2:24:15; Version: 2.1.5]
[CTDB TOCID: R8jQ7WvwkdK7MMbHlF8p89n1r8c-] found.
Track | CTDB Status
1 | (6/6) Accurately ripped
2 | (6/6) Accurately ripped
3 | (6/6) Accurately ripped
4 | (6/6) Accurately ripped
5 | (6/6) Accurately ripped
6 | (6/6) Accurately ripped
7 | (6/6) Accurately ripped
8 | (6/6) Accurately ripped
9 | (6/6) Accurately ripped
10 | (6/6) Accurately ripped
11 | (6/6) Accurately ripped
12 | (6/6) Accurately ripped
[AccurateRip ID: 0016aa02-00d28f63-8a0b6f0c] found.
Track [ CRC | V2 ] Status
01 [b19fb10b|159c3233] (0+2/2) Accurately ripped
02 [a3da9258|e470e4ff] (0+2/2) Accurately ripped
03 [e0c9b987|083b0850] (0+2/2) Accurately ripped
04 [52b2b03a|33ff492b] (0+2/2) Accurately ripped
05 [67385311|26b8c171] (0+2/2) Accurately ripped
06 [760a14b5|867157df] (0+2/2) Accurately ripped
07 [d5934a2c|fb339243] (0+2/2) Accurately ripped
08 [9113cb49|ea6d4b10] (0+2/2) Accurately ripped
09 [97ad6f79|f2dad855] (0+2/2) Accurately ripped
10 [96ac0d5f|7f1f992d] (0+2/2) Accurately ripped
11 [8b599598|a5f9cc56] (0+2/2) Accurately ripped
12 [37fb9ce1|80d72f32] (0+2/2) Accurately ripped

Track Peak [ CRC32 ] [W/O NULL] [ LOG ]
– 98,9 [9CEC3D15] [FDC29B9E]
01 98,9 [36DEC722] [E27077EA] CRC32
02 98,9 [DB9D8498] [9F999B46] CRC32
03 98,9 [B929B9AA] [5732122B] CRC32
04 98,9 [7A3CEA72] [5F1F47E4] CRC32
05 98,8 [C377AAE6] [5C74DDC5] CRC32
06 98,9 [7369B59B] [557583EB] CRC32
07 98,8 [6788AADA] [52C7A303] CRC32
08 95,5 [8D35A95D] [39810A14] CRC32
09 98,8 [393A7BFC] [90665AE9] CRC32
10 98,8 [91FE6D74] [C9B2670D] CRC32
11 98,9 [3E885948] [5EE96BF1] CRC32
12 98,8 [8F659485] [66A10DE7] CRC32

Great White - Ready For Rock 'N' Roll (2012)

All thanks go to alex1248

>>> Great White in my Blog <<<

Download from icerbox.com: