Subcategories

Great White - Saturday Night Special (Ready For Rock 'N' Roll Part II) (2014)

Posted By: popsakov
Great White - Saturday Night Special (Ready For Rock 'N' Roll Part II) (2014)

Great White - Saturday Night Special (Ready For Rock 'N' Roll Part II) (2014)
EAC Rip | FLAC (Tracks) + Cue + m3u + Log ~ 494 Mb | MP3 CBR320 ~ 166 Mb
Scans Included (JPG, 300 dpi) | RAR 5% Recovery
Hard Rock | Collectors Dream Records #CDR DP0019

Issued by Collectors Dream, the Saturday Night Special (Ready for Rock 'n' Roll Part II) disc pulls together a cash-in collection of classic rock covers. In the late 1980s, they had their greatest hits with like Rock Me, Once Bitten, Twice Shy or Save Your Love. Over the same period, the songs from seventies heavy weights Aerosmith ("Same Old Song and Dance"), Lynyrd Skynyrd ("Saturday Night Special"), Led Zeppelin ("Dazed & Confused"), Thin Lizzy ("Sarah") and Van Halen ("Unchained") carry the sharpest teeth from the recording. Saturday Night Special is the follow-up album to the Collector's Dream Series Ready For Rock N Roll.

***************

Great White - Saturday Night Special (Ready For Rock 'N' Roll Part II) (2014)

Track List:

01. Once Bitten, Twice Shy (Ian Hunter) [5:19]
02. Rock Me (Great White) [8:21]
03. Save Your Love (Great White) [4:39]
04. Keep Your Hands To Yourself (Georgia Satellites) [3:29]
05. Hard To Handle (Black Crowes) [3:14]
06. Eye Of The Tiger (Survivor) [3:55]
07. Saturday Night Special (Lynyrd Skynyrd) [4:23]
08. Same Old Song And Dance (Aerosmith) [4:10]
09. Kick Start My Heart (Motley Crue) [4:35]
10. Any Way You Want It (Journey) [3:08]
11. Unchained (Van Halen) [3:25]
12. Diamonds & Rust (Joan Baez) [3:30]
13. Dazed & Confused (Led Zeppelin) [6:33]
14. Sarah (Thin Lizzy) [3:12]
15. Blue Christmas (Elvis Presley) [2:20]

Personnel:
Bass – Tony Montana
Drums – Audie Desbrow
Guitar, Keyboards, Backing Vocals, Engineer – Michael Lardie
Lead Guitar, Backing Vocals – Mark Kendall
Lead Vocals, Backing Vocals – Jack Russell

Exact Audio Copy V1.1 from 23. June 2015

EAC extraction logfile from 6. June 2016, 22:58

Great White / Saturday Night Special (Ready For Rock 'N' Roll Part II)

Used drive : Optiarc DVD RW AD-7283S Adapter: 1 ID: 1

Read mode : Secure
Utilize accurate stream : Yes
Defeat audio cache : Yes
Make use of C2 pointers : No

Read offset correction : 48
Overread into Lead-In and Lead-Out : No
Fill up missing offset samples with silence : Yes
Delete leading and trailing silent blocks : No
Null samples used in CRC calculations : Yes
Used interface : Native Win32 interface for Win NT & 2000
Gap handling : Appended to previous track

Used output format : User Defined Encoder
Selected bitrate : 128 kBit/s
Quality : High
Add ID3 tag : No
Command line compressor : C:\Program Files (x86)\Exact Audio Copy\Flac\flac.exe
Additional command line options : -V -8 -T "Genre=%genre%" -T "Artist=%artist%" -T "Title=%title%" -T "Album=%albumtitle%" -T "Date=%year%" -T "Tracknumber=%tracknr%" -T "Comment=%comment%" %source%


TOC of the extracted CD

Track | Start | Length | Start sector | End sector
––––––––––––––––––––––––––––-
1 | 0:00.00 | 5:20.39 | 0 | 24038
2 | 5:20.39 | 8:22.60 | 24039 | 61748
3 | 13:43.24 | 4:40.48 | 61749 | 82796
4 | 18:23.72 | 3:30.40 | 82797 | 98586
5 | 21:54.37 | 3:15.46 | 98587 | 113257
6 | 25:10.08 | 3:56.46 | 113258 | 131003
7 | 29:06.54 | 4:25.26 | 131004 | 150904
8 | 33:32.05 | 4:11.38 | 150905 | 169767
9 | 37:43.43 | 4:37.14 | 169768 | 190556
10 | 42:20.57 | 3:09.59 | 190557 | 204790
11 | 45:30.41 | 3:26.41 | 204791 | 220281
12 | 48:57.07 | 3:32.17 | 220282 | 236198
13 | 52:29.24 | 6:34.43 | 236199 | 265791
14 | 59:03.67 | 3:14.37 | 265792 | 280378
15 | 62:18.29 | 2:20.09 | 280379 | 290887


Track 1

Filename I:\Great White\Great White - 2014 - Saturday Night Special (Ready For Rock 'N' Roll Part II) (CDR DP0019)\01 Once Bitten, Twice Shy (Ian Hunter).wav

Pre-gap length 0:00:02.00

Peak level 100.0 %
Extraction speed 2.5 X
Track quality 100.0 %
Test CRC D105515C
Copy CRC D105515C
Accurately ripped (confidence 2) [8F10505E] (AR v2)
Copy OK

Track 2

Filename I:\Great White\Great White - 2014 - Saturday Night Special (Ready For Rock 'N' Roll Part II) (CDR DP0019)\02 Rock Me (Great White).wav

Pre-gap length 0:00:02.00

Peak level 100.0 %
Extraction speed 3.1 X
Track quality 100.0 %
Test CRC 1BC332BE
Copy CRC 1BC332BE
Accurately ripped (confidence 2) [41DBCEA8] (AR v2)
Copy OK

Track 3

Filename I:\Great White\Great White - 2014 - Saturday Night Special (Ready For Rock 'N' Roll Part II) (CDR DP0019)\03 Save Your Love (Great White).wav

Pre-gap length 0:00:02.00

Peak level 100.0 %
Extraction speed 3.3 X
Track quality 100.0 %
Test CRC 1B676038
Copy CRC 1B676038
Accurately ripped (confidence 2) [1F35C5F7] (AR v2)
Copy OK

Track 4

Filename I:\Great White\Great White - 2014 - Saturday Night Special (Ready For Rock 'N' Roll Part II) (CDR DP0019)\04 Keep Your Hands To Yourself (Georgia Satellites).wav

Pre-gap length 0:00:02.00

Peak level 100.0 %
Extraction speed 3.4 X
Track quality 100.0 %
Test CRC 68FAF82E
Copy CRC 68FAF82E
Accurately ripped (confidence 2) [471BAE78] (AR v2)
Copy OK

Track 5

Filename I:\Great White\Great White - 2014 - Saturday Night Special (Ready For Rock 'N' Roll Part II) (CDR DP0019)\05 Hard To Handle (Black Crowes).wav

Pre-gap length 0:00:02.00

Peak level 100.0 %
Extraction speed 3.5 X
Track quality 100.0 %
Test CRC 49795F47
Copy CRC 49795F47
Accurately ripped (confidence 2) [FCBB0126] (AR v2)
Copy OK

Track 6

Filename I:\Great White\Great White - 2014 - Saturday Night Special (Ready For Rock 'N' Roll Part II) (CDR DP0019)\06 Eye Of The Tiger (Survivor).wav

Pre-gap length 0:00:02.00

Peak level 100.0 %
Extraction speed 3.7 X
Track quality 100.0 %
Test CRC AA74CC0F
Copy CRC AA74CC0F
Accurately ripped (confidence 2) [2DD5553B] (AR v2)
Copy OK

Track 7

Filename I:\Great White\Great White - 2014 - Saturday Night Special (Ready For Rock 'N' Roll Part II) (CDR DP0019)\07 Saturday Night Special (Lynyrd Skynyrd).wav

Pre-gap length 0:00:02.00

Peak level 100.0 %
Extraction speed 4.0 X
Track quality 100.0 %
Test CRC 08C192A9
Copy CRC 08C192A9
Accurately ripped (confidence 2) [86B8DFCA] (AR v2)
Copy OK

Track 8

Filename I:\Great White\Great White - 2014 - Saturday Night Special (Ready For Rock 'N' Roll Part II) (CDR DP0019)\08 Same Old Song And Dance (Aerosmith).wav

Pre-gap length 0:00:02.00

Peak level 100.0 %
Extraction speed 4.1 X
Track quality 100.0 %
Test CRC 52E8B003
Copy CRC 52E8B003
Accurately ripped (confidence 2) [4CDD4A76] (AR v2)
Copy OK

Track 9

Filename I:\Great White\Great White - 2014 - Saturday Night Special (Ready For Rock 'N' Roll Part II) (CDR DP0019)\09 Kick Start My Heart (Motley Crue).wav

Pre-gap length 0:00:02.00

Peak level 100.0 %
Extraction speed 3.9 X
Track quality 99.9 %
Test CRC 39BD7A24
Copy CRC 39BD7A24
Accurately ripped (confidence 2) [D7297FCA] (AR v2)
Copy OK

Track 10

Filename I:\Great White\Great White - 2014 - Saturday Night Special (Ready For Rock 'N' Roll Part II) (CDR DP0019)\10 Any Way You Want It (Journey).wav

Pre-gap length 0:00:02.00

Peak level 100.0 %
Extraction speed 4.3 X
Track quality 100.0 %
Test CRC E1DCE15C
Copy CRC E1DCE15C
Accurately ripped (confidence 2) [17A08001] (AR v2)
Copy OK

Track 11

Filename I:\Great White\Great White - 2014 - Saturday Night Special (Ready For Rock 'N' Roll Part II) (CDR DP0019)\11 Unchained (Van Halen).wav

Pre-gap length 0:00:02.00

Peak level 100.0 %
Extraction speed 4.4 X
Track quality 100.0 %
Test CRC DA483210
Copy CRC DA483210
Accurately ripped (confidence 2) [CDA9AE5D] (AR v2)
Copy OK

Track 12

Filename I:\Great White\Great White - 2014 - Saturday Night Special (Ready For Rock 'N' Roll Part II) (CDR DP0019)\12 Diamonds & Rust (Joan Baez).wav

Pre-gap length 0:00:02.00

Peak level 100.0 %
Extraction speed 4.6 X
Track quality 100.0 %
Test CRC 68192F57
Copy CRC 68192F57
Accurately ripped (confidence 2) [C5199BA1] (AR v2)
Copy OK

Track 13

Filename I:\Great White\Great White - 2014 - Saturday Night Special (Ready For Rock 'N' Roll Part II) (CDR DP0019)\13 Dazed & Confused (Led Zeppelin).wav

Pre-gap length 0:00:02.00

Peak level 100.0 %
Extraction speed 5.1 X
Track quality 100.0 %
Test CRC F77A32A9
Copy CRC F77A32A9
Accurately ripped (confidence 2) [7BB60333] (AR v2)
Copy OK

Track 14

Filename I:\Great White\Great White - 2014 - Saturday Night Special (Ready For Rock 'N' Roll Part II) (CDR DP0019)\14 Sarah (Thin Lizzy).wav

Pre-gap length 0:00:02.00

Peak level 100.0 %
Extraction speed 4.8 X
Track quality 100.0 %
Test CRC 29E91ABA
Copy CRC 29E91ABA
Accurately ripped (confidence 2) [555900E2] (AR v2)
Copy OK

Track 15

Filename I:\Great White\Great White - 2014 - Saturday Night Special (Ready For Rock 'N' Roll Part II) (CDR DP0019)\15 Blue Christmas (Elvis Presley).wav

Pre-gap length 0:00:02.00

Peak level 100.0 %
Extraction speed 3.8 X
Track quality 99.9 %
Test CRC AC625F11
Copy CRC AC625F11
Accurately ripped (confidence 2) [5EE97F5F] (AR v2)
Copy OK


All tracks accurately ripped

No errors occurred

End of status report

–– CUETools DB Plugin V2.1.6

[CTDB TOCID: FxOUNHV7FJKBb841xQ8KhYJ3Snw-] found
Submit result: already submitted
Track | CTDB Status
1 | (3/3) Accurately ripped
2 | (3/3) Accurately ripped
3 | (3/3) Accurately ripped
4 | (3/3) Accurately ripped
5 | (3/3) Accurately ripped
6 | (3/3) Accurately ripped
7 | (3/3) Accurately ripped
8 | (3/3) Accurately ripped
9 | (3/3) Accurately ripped
10 | (3/3) Accurately ripped
11 | (3/3) Accurately ripped
12 | (3/3) Accurately ripped
13 | (3/3) Accurately ripped
14 | (3/3) Accurately ripped
15 | (3/3) Accurately ripped


==== Log checksum 84D9F9FDAD892C137CEFE87E56DFC3462A5085FBA754399E5112E90AF4FBA448 ====

foobar2000 1.3.16 / Dynamic Range Meter 1.1.1
log date: 2018-02-18 20:14:42

––––––––––––––––––––––––––––––––––––––––
Analyzed: Great White1 / Saturday Night Special (Ready For Rock 'N' Roll Part II) (1-3)
Great White / Saturday Night Special (Ready For Rock 'N' Roll Part II) (4-15)
––––––––––––––––––––––––––––––––––––––––

DR Peak RMS Duration Track
––––––––––––––––––––––––––––––––––––––––
DR4 0.00 dB -6.06 dB 8:23 02-Rock Me (Great White)
DR6 0.00 dB -7.67 dB 4:41 03-Save Your Love (Great White)
DR6 0.00 dB -8.06 dB 3:31 04-Keep Your Hands To Yourself (Georgia Satellites)
DR4 0.00 dB -5.17 dB 5:21 01-Once Bitten, Twice Shy (Ian Hunter)
DR6 0.00 dB -7.91 dB 3:16 05-Hard To Handle (Black Crowes)
DR5 0.00 dB -6.73 dB 3:57 06-Eye Of The Tiger (Survivor)
DR4 0.00 dB -4.56 dB 4:25 07-Saturday Night Special (Lynyrd Skynyrd)
DR5 0.00 dB -5.97 dB 4:12 08-Same Old Song And Dance (Aerosmith)
DR6 0.00 dB -7.51 dB 4:37 09-Kick Start My Heart (Motley Crue)
DR4 0.00 dB -5.61 dB 3:10 10-Any Way You Want It (Journey)
DR5 0.00 dB -6.04 dB 3:27 11-Unchained (Van Halen)
DR3 0.00 dB -4.29 dB 3:32 12-Diamonds & Rust (Joan Baez)
DR3 0.00 dB -4.88 dB 6:35 13-Dazed & Confused (Led Zeppelin)
DR5 0.00 dB -6.43 dB 3:14 14-Sarah (Thin Lizzy)
DR6 0.00 dB -6.77 dB 2:20 15-Blue Christmas (Elvis Presley)
––––––––––––––––––––––––––––––––––––––––

Number of tracks: 15
Official DR value: DR5

Samplerate: 44100 Hz
Channels: 2
Bits per sample: 16
Bitrate: 976 kbps
Codec: FLAC
================================================================================

[CUETools log; Date: 18.02.2018 16:15:51; Version: 2.1.5]
[CTDB TOCID: FxOUNHV7FJKBb841xQ8KhYJ3Snw-] found.
Track | CTDB Status
1 | (6/6) Accurately ripped
2 | (6/6) Accurately ripped
3 | (6/6) Accurately ripped
4 | (6/6) Accurately ripped
5 | (6/6) Accurately ripped
6 | (6/6) Accurately ripped
7 | (6/6) Accurately ripped
8 | (6/6) Accurately ripped
9 | (6/6) Accurately ripped
10 | (6/6) Accurately ripped
11 | (6/6) Accurately ripped
12 | (6/6) Accurately ripped
13 | (6/6) Accurately ripped
14 | (6/6) Accurately ripped
15 | (6/6) Accurately ripped
[AccurateRip ID: 002677a3-01a8d760-b80f260f] found.
Track [ CRC | V2 ] Status
01 [3a9b6b4e|8f10505e] (0+4/4) Accurately ripped
02 [52ca1940|41dbcea8] (0+4/4) Accurately ripped
03 [a5ef9645|1f35c5f7] (0+4/4) Accurately ripped
04 [9ab10485|471bae78] (0+4/4) Accurately ripped
05 [9c7baa5b|fcbb0126] (0+4/4) Accurately ripped
06 [eb6cc513|2dd5553b] (0+4/4) Accurately ripped
07 [bb283d2f|86b8dfca] (0+4/4) Accurately ripped
08 [aac0b73a|4cdd4a76] (0+4/4) Accurately ripped
09 [bbc89e75|d7297fca] (0+4/4) Accurately ripped
10 [8c92b162|17a08001] (0+4/4) Accurately ripped
11 [8bba580f|cda9ae5d] (0+4/4) Accurately ripped
12 [e65373da|c5199ba1] (0+5/5) Accurately ripped
13 [f81920af|7bb60333] (0+4/4) Accurately ripped
14 [8bd023ee|555900e2] (0+5/5) Accurately ripped
15 [88350851|5ee97f5f] (0+4/4) Accurately ripped
Offsetted by 6:
01 [dc1f0892] (0/4) No match (V2 was not tested)
02 [b82e8e03] (0/4) No match (V2 was not tested)
03 [32c09bd7] (0/4) No match (V2 was not tested)
04 [8a236aab] (0/4) No match (V2 was not tested)
05 [25ee0bb6] (0/4) No match (V2 was not tested)
06 [942dbea5] (0/4) No match (V2 was not tested)
07 [29983594] (0/4) No match (V2 was not tested)
08 [3d47cc54] (0/4) No match (V2 was not tested)
09 [675c28ad] (0/4) No match (V2 was not tested)
10 [00955818] (0/4) No match (V2 was not tested)
11 [8c859105] (0/4) No match (V2 was not tested)
12 [38db06a5] (0/5) No match (V2 was not tested)
13 [48fd6685] (0/4) No match (V2 was not tested)
14 [21dd1287] (0/5) No match (V2 was not tested)
15 [6dc2a0ab] (0/4) No match (V2 was not tested)

Track Peak [ CRC32 ] [W/O NULL] [ LOG ]
– 100,0 [B1F15F09] [28068E12]
01 100,0 [D105515C] [6E12B867] CRC32
02 100,0 [1BC332BE] [8275696C] CRC32
03 100,0 [1B676038] [4B479AB6] CRC32
04 100,0 [68FAF82E] [C1D67295] CRC32
05 100,0 [49795F47] [2A70E3D1] CRC32
06 100,0 [AA74CC0F] [4CBD07B0] CRC32
07 100,0 [08C192A9] [832762D1] CRC32
08 100,0 [52E8B003] [DFDD300A] CRC32
09 100,0 [39BD7A24] [1730A496] CRC32
10 100,0 [E1DCE15C] [EEB6C62C] CRC32
11 100,0 [DA483210] [DE0FC38D] CRC32
12 100,0 [68192F57] [C42A03E4] CRC32
13 100,0 [F77A32A9] [6282BC46] CRC32
14 100,0 [29E91ABA] [9A8BE5A5] CRC32
15 100,0 [AC625F11] [D7A2BF23] CRC32

Great White - Saturday Night Special (Ready For Rock 'N' Roll Part II) (2014)

See also:
Great White - Ready For Rock 'N' Roll (2012)

All thanks go to alex1248

>>> Great White in my Blog <<<

Download from icerbox.com: