Greg X. Volz - Come Out Fighting (1988)

Posted By: Andi_Deris
Greg X. Volz - Come Out Fighting (1988)

Greg X. Volz - Come Out Fighting (1988)
EAC Rip | FLAC: Image+Cue+Log | 313 Mb | MP3 CBR 320 kbps | 132 Mb | Scans | Time: 42:20
Myrrh Records | 7016865614
Rock, AOR, CCM

There may never be another vocal performance in Christian Rock that can deliver the unmatched power of 'Dream On'. Taken from Come Out Fighting, and of course a version of the Aerosmith smash hit, 'Dream On' deftly ties together an impacting, yet accessible album. Other top tracks include 'Will You Take Me Back?' and many more.

Greg X. Volz - Come Out Fighting (1988)




Track Listing

01. I Come Out Fighting (03:34)
02. I Don't Know Why (04:03)
03. Take Me To The End (04:53)
04. Let The Mountains Fall (04:16)
05. Dream On (Aerosmith cover) (05:11)
06. What Will Remain (04:17)
07. Back Burner (04:44)
08. Will You Take Me Back? (04:12)
09. I Know You By Heart (03:25)
10. Up To The Mountain (03:45)

Produced by George Atwell, Michael Atwell and Greg X. Volz

Musicians

• Greg X. Volz - Vocals, backup vocals
• Kirk Henderson - Guitars
• Michael Atwell - Drums and drum programming
• George Atwell and Michael Atwell - Keyboards
• Michael Atwell - Fairlight and bass programming
• Rich Head and Michael Atwell - Synclavier programming

Background vocals
• Debi Manning on "I Come Out Fighting"
• Julia Schram on "I Come Out Fighting" and "Back Burner"
• Pam Mark Hall on "Back Burner"

Exact Audio Copy V1.0 beta 3 from 29. August 2011

EAC extraction logfile from 15. April 2012, 4:57

Greg X. Volz / Come Out Fighting

Used drive : SlimtypeDVD A DS8A5SH Adapter: 0 ID: 1

Read mode : Secure
Utilize accurate stream : Yes
Defeat audio cache : Yes
Make use of C2 pointers : No

Read offset correction : 6
Overread into Lead-In and Lead-Out : No
Fill up missing offset samples with silence : Yes
Delete leading and trailing silent blocks : No
Null samples used in CRC calculations : Yes
Used interface : Native Win32 interface for Win NT & 2000

Used output format : User Defined Encoder
Selected bitrate : 320 kBit/s
Quality : High
Add ID3 tag : No
Command line compressor : C:\Program Files (x86)\Exact Audio Copy\Flac\flac.exe
Additional command line options : -V -8 -T "Date=%year%" -T "Genre=%genre%" %source%


TOC of the extracted CD

Track | Start | Length | Start sector | End sector
––––––––––––––––––––––––––––-
1 | 0:00.00 | 3:33.70 | 0 | 16044
2 | 3:33.70 | 4:02.62 | 16045 | 34256
3 | 7:36.57 | 4:52.53 | 34257 | 56209
4 | 12:29.35 | 4:16.10 | 56210 | 75419
5 | 16:45.45 | 5:11.02 | 75420 | 98746
6 | 21:56.47 | 4:17.05 | 98747 | 118026
7 | 26:13.52 | 4:43.50 | 118027 | 139301
8 | 30:57.27 | 4:12.33 | 139302 | 158234
9 | 35:09.60 | 3:24.65 | 158235 | 173599
10 | 38:34.50 | 3:44.45 | 173600 | 190444


Range status and errors

Selected range

Filename D:\My Music\Petra (lossless)\Greg X Volz - 1988 Come Out Fighting\Greg X. Volz - Come Out Fighting.wav

Peak level 100.0 %
Extraction speed 4.1 X
Range quality 100.0 %
Test CRC F5A7D062
Copy CRC F5A7D062
Copy OK

No errors occurred


AccurateRip summary

Track 1 accurately ripped (confidence 5) [B91A0795] (AR v1)
Track 2 accurately ripped (confidence 5) [EDFBC4F1] (AR v1)
Track 3 accurately ripped (confidence 5) [C507FD4F] (AR v1)
Track 4 accurately ripped (confidence 5) [1D7AF8B5] (AR v1)
Track 5 accurately ripped (confidence 5) [7BFDDBA6] (AR v1)
Track 6 accurately ripped (confidence 5) [2BC86661] (AR v1)
Track 7 accurately ripped (confidence 5) [92A83013] (AR v1)
Track 8 accurately ripped (confidence 5) [E5F9E4DD] (AR v1)
Track 9 accurately ripped (confidence 5) [54FC4B3C] (AR v1)
Track 10 accurately ripped (confidence 5) [F0C09998] (AR v1)

All tracks accurately ripped

End of status report

==== Log checksum B501B53C477E21183DD3D7181DC2462F2FC50AA20C2F83E8D8952F14B17CC761 ====


Many thanks to the original uploader: kolushew


Glass Harp 1970 Glass Harp [Remastered, 2005]
Glass Harp 1971 Synergy [Remastered, 2005]
Glass Harp 1972 It Makes Me Glad [Remastered, 2005]
Glass Harp 1997 Live! At Carnegie Hall
Glass Harp 2001 Strings Attached [Live] 2CD
Glass Harp 2003 Hourglass
Glass Harp 2004 Stark Raving Jams [Live] 3CD
Glass Harp 2010 Live At The Beachland Ballroom 11.01.08

Greg X. Volz 1986 The River Is Rising
Greg X. Volz 1989 No Room In The Middle
Greg X. Volz 1991 The Exodus

Halo 1990 Halo / 1991 Heaven Calling

John Elefante - Discography (1995-2013)

John Schlitt 1995 Shake
John Schlitt 2012 The Greater Cause

Mastedon - Discography (1989-2009)

Petra 1974 Petra [Reissue 1992]
Petra 1977 Come And Join Us [Reissue 1995]
Petra 1979 Washes Whiter Than / 1981 Never Say Die [Reissue 1988]
Petra 1982 More Power To Ya
Petra 1983 Not Of This World
Petra 1984 Beat The System
Petra 1986 Captured In Time And Space (Live)
Petra 1986 Captured In Time And Space (Live) [DVD]
Petra 1986 Back To The Street
Petra 1987 This Means War!
Petra 1988 On Fire!
Petra 1989 Petra Means Rock [Compilation]
Petra 1989 Petra Praise… The Rock Cries Out
Petra 1990 Beyond Belief
Petra 1990 Beyond Belief [DVD]
Petra 1991 Unseen Power
Petra 1993 Wake-Up Call
Petra 1995 No Doubt
Petra 1997 Petra Praise 2: We Need Jesus
Petra 1998 God Fixation
Petra 2000 Double Take
Petra 2001 Revival
Petra 2003 Jekyll & Hyde
Petra 2003 The Power Of Praise [Compilation]
Petra 2006 Farewell [DVD]
II Guys From Petra 2007 Vertical Expressions
Classic Petra 2010 Back To The Rock

V.A. 1996 Never Say Dinosaur - Tribute To Petra