Subcategories

Guns N' Roses - Best Ballads (2000)

Posted By: v3122
Guns N' Roses - Best  Ballads (2000)

Guns N' Roses - Best Ballads (2000)
EAC | Flac(Image) + Cue + Log & MP3 CBR 320Kbps
Lighthouse Records | ~ 434 or 175 Mb | Scans(jpg) -> 12 Mb
Hard Rock | Unofficial Release

Guns N' Roses, often abbreviated as GNR, is an American hard rock band from Los Angeles, California, formed in 1985. The lineup, when first signed to Geffen Records in 1986, consisted of vocalist Axl Rose, lead guitarist Slash, rhythm guitarist Izzy Stradlin, bassist Duff McKagan, and drummer Steven Adler. Guns N' Roses have released six studio albums, accumulating sales of more than 100 million records worldwide, including 45 million in the United States, making them the 41st best-selling artist of all time.

Guns N' Roses' debut album, Appetite for Destruction (1987), reached number one on the Billboard 200 a year after its release, on the strength of "Sweet Child o' Mine", the band's only single to reach number one on the Billboard Hot 100. The album has sold approximately 30 million copies worldwide, including 18 million units in the United States, making it the best-selling debut album of all time in the US, as well as the eleventh best-selling album in the United States. The success of the debut was followed by the eight-song album G N' R Lies (1988) which reached number two on the Billboard 200. The twin albums Use Your Illusion I and Use Your Illusion II (1991) debuted at number two and number one on the Billboard 200 respectively and have sold a combined 35 million copies worldwide, including 14 million units in the United States. The cover album "The Spaghetti Incident?" (1993) was the band's last studio album to feature Slash and McKagan.

After more than a decade of work and several lineup changes, Guns N' Roses released the long-awaited album Chinese Democracy (2008) which, at an estimated $14 million in production costs, is the most expensive rock album to ever be produced in music history. It debuted at number three on the Billboard 200 but undersold industry expectations, despite mostly positive critical reception. Former members Slash and McKagan both rejoined the band in 2016, embarking on the Not in This Lifetime… Tour. The tour is currently the sixth highest-grossing concert tour of all-time, grossing over $430 million by November 2017.

Guns N' Roses' late 1980s and early 1990s years have been described as the period in which the group brought forth a "hedonistic rebelliousness" reminiscent of the early Rolling Stones, a reputation that had earned the group the nickname "the most dangerous band in the world". The band's classic lineup, along with later members keyboardist Dizzy Reed and drummer Matt Sorum, was inducted into the Rock and Roll Hall of Fame in 2012, its first year of eligibility.

The band's membership has changed many times since the early 1990s, with Rose and Reed as the only two constant members since 1990. The current lineup consists of Rose, Slash, McKagan, Reed, guitarist Richard Fortus, drummer Frank Ferrer and keyboardist Melissa Reese…

~ wiki
Guns N' Roses - Best  Ballads (2000)


Guns N' Roses - Best Ballads (2000):

Guns N' Roses - Best  Ballads (2000)

Tracklist:

01. DON’ T CRY [0:04:45.23]
02. NOVEMBER RAIN [0:08:53.63]
03. KNOCKIN' ON HEAVENS DOORS [0:05:37.35]
04. PATIENCE [0:05:54.68]
05. SINCE I DON’ T HAVE YOU [0:04:20.47]
06. ESTRANGED [0:09:23.11]
07. SO FINE [0:04:06.49]
08. LIVE AND LET DIE [0:03:01.41]
09. YOU AIN’ T THE FIRST [0:02:37.70]
10. CIVIL WAR [0:07:38.68]
11. DUST’ N’ BONES [0:04:58.07]
12. THE GURDEN [0:05:20.00]
13. SWEET CHILD OF MINE [0:05:56.05]

Exact Audio Copy V0.99 prebeta 4 from 23. January 2008

EAC extraction logfile from 26. April 2009, 17:55

Guns N' Roses / Best Ballads (new)

Used drive : Optiarc DVD RW AD-7173A Adapter: 3 ID: 0

Read mode : Secure
Utilize accurate stream : Yes
Defeat audio cache : Yes
Make use of C2 pointers : No

Read offset correction : 48
Overread into Lead-In and Lead-Out : No
Fill up missing offset samples with silence : Yes
Delete leading and trailing silent blocks : No
Null samples used in CRC calculations : Yes
Used interface : Native Win32 interface for Win NT & 2000

Used output format : Internal WAV Routines
Sample format : 44.100 Hz; 16 Bit; Stereo


TOC of the extracted CD

Track | Start | Length | Start sector | End sector
––––––––––––––––––––––––––––-
1 | 0:00.00 | 4:45.23 | 0 | 21397
2 | 4:45.23 | 8:53.63 | 21398 | 61435
3 | 13:39.11 | 5:37.35 | 61436 | 86745
4 | 19:16.46 | 5:54.68 | 86746 | 113363
5 | 25:11.39 | 4:20.47 | 113364 | 132910
6 | 29:32.11 | 9:23.11 | 132911 | 175146
7 | 38:55.22 | 4:06.49 | 175147 | 193645
8 | 43:01.71 | 3:01.41 | 193646 | 207261
9 | 46:03.37 | 2:37.70 | 207262 | 219106
10 | 48:41.32 | 7:38.68 | 219107 | 253524
11 | 56:20.25 | 4:58.07 | 253525 | 275881
12 | 61:18.32 | 5:20.00 | 275882 | 299881
13 | 66:38.32 | 5:56.05 | 299882 | 326586


Range status and errors

Selected range

Filename C:\Documents and Settings\Юрий\Рабочий стол\Новая папка 1\Guns N' Roses-Best Ballads (new)\Guns N' Roses - Best Ballads (new).wav

Peak level 100.0 %
Range quality 100.0 %
Copy CRC 52201C8F
Copy OK

No errors occurred


AccurateRip summary

Track 1 not present in database
Track 2 not present in database
Track 3 not present in database
Track 4 not present in database
Track 5 not present in database
Track 6 not present in database
Track 7 not present in database
Track 8 not present in database
Track 9 not present in database
Track 10 not present in database
Track 11 not present in database
Track 12 not present in database
Track 13 not present in database

None of the tracks are present in the AccurateRip database

End of status report


[CUETools log; Date: 22.12.2017 19:36:58; Version: 2.1.5]
[AccurateRip ID: 00241dad-0164240b-b411020d] disk not present in database.

Track Peak [ CRC32 ] [W/O NULL] [ LOG ]
– 100,0 [52201C8F] [7E9D31A1] CRC32
01 85,6 [A66B808F] [4648BF52]
02 95,4 [7EB859FE] [C093BF56]
03 71,2 [98AF0EAF] [75CDF995]
04 100,0 [0AE23C85] [3E376314]
05 71,6 [11B357DB] [82BBAF2B]
06 71,6 [1DE3C01D] [969798DA]
07 65,6 [331D08F2] [5278BEBB]
08 67,3 [7F95DE23] [9FDC5046]
09 97,9 [1128962E] [46789CEC]
10 96,0 [584AB31E] [05835BF9]
11 99,8 [F3FDAB70] [CF2FDD72]
12 99,4 [0F4B1625] [74E978DA]
13 95,1 [EDCE9068] [FDC56D63]


Guns N' Roses - Best  Ballads (2000)

All thanks go to the original releaser

Guns N' Roses or Guns N' Roses in my Blog

Download Guns N' Roses - Best Ballads (2000):