Subcategories

Guns N' Roses - Use Your Illusion I (1991) [MFSL, UDCD 711]

Posted By: v3122
Guns N' Roses - Use Your Illusion I (1991) [MFSL, UDCD 711]

Guns N' Roses - Use Your Illusion I (1991)
EAC | Flac(Image) + Cue + Log & MP3 CBR 320Kbps
1997 | Mobile Fidelity Sound Lab, UDCD 711 | ~ 516 or 180 Mb | Scans(jpg) -> 54 Mb
Hard Rock / Glam

The "difficult second album" is one of the perennial rock & roll clichés, but few second albums ever were as difficult as Use Your Illusion. Not really conceived as a double album but impossible to separate as individual works, Use Your Illusion is a shining example of a suddenly successful band getting it all wrong and letting its ambitions run wild. Taking nearly three years to complete, the recording of the album was clearly difficult, and tensions between Slash, Izzy Stradlin, and Axl Rose are evident from the start. The two guitarists, particularly Stradlin, are trying to keep the group closer to its hard rock roots, but Rose has pretensions of being Queen and Elton John, which is particularly odd for a notoriously homophobic Midwestern boy. Conceivably, the two aspirations could have been divided between the two records, but instead they are just thrown into the blender – it's just a coincidence that Use Your Illusion I is a harder-rocking record than II. Stradlin has a stronger presence on I, contributing three of the best songs – "Dust n' Bones," "You Ain't the First," and "Double Talkin' Jive" – which help keep the album in Stonesy Aerosmith territory. On the whole, the album is stronger than II, even though there's a fair amount of filler, including a dippy psychedelic collaboration with Alice Cooper and a song that takes its title from the Osmonds' biggest hit. But it also has two ambitious set pieces, "November Rain" and "Coma," which find Rose fulfilling his ambitions, as well as the ferocious, metallic "Perfect Crime" and the original version of the power ballad "Don't Cry." Still, it can be a chore to find the highlights on the record amid the overblown production and endless amounts of filler.

by Stephen Thomas Erlewine, allmusic
Guns N' Roses - Use Your Illusion I (1991) [MFSL, UDCD 711]


Guns N' Roses - Use Your Illusion I (1991):

Guns N' Roses - Use Your Illusion I (1991) [MFSL, UDCD 711]

Tracklist:

01. Right Next Door To Hell [3:03]
02. Dust N' Bones [5:01]
03. Live And Let Die [3:06]
04. Don't Cry (Original) [4:45]
05. Perfect Crime [2:24]
06. You Ain't The First [2:38]
07. Bad Obsession [5:30]
08. Back Off Bitch [5:04]
09. Double Talkin' Jive [3:24]
10. November Rain [9:01]
11. The Garden [5:24]
12. Garden Of Eden [2:42]
13. Don't Damn Me [5:20]
14. Bad Apples [4:28]
15. Dead Horse [4:18]
16. Coma [10:16]

Exact Audio Copy V0.99 prebeta 5 from 4. May 2009

EAC extraction logfile from 25. April 2012, 20:00

Guns N' Roses / Use Your Illusion I

Used drive : ASUS DRW-24B3ST Adapter: 0 ID: 0

Read mode : Secure
Utilize accurate stream : Yes
Defeat audio cache : Yes
Make use of C2 pointers : No

Read offset correction : 6
Overread into Lead-In and Lead-Out : No
Fill up missing offset samples with silence : Yes
Delete leading and trailing silent blocks : No
Null samples used in CRC calculations : Yes
Used interface : Native Win32 interface for Win NT & 2000

Used output format : Internal WAV Routines
Sample format : 44.100 Hz; 16 Bit; Stereo


TOC of the extracted CD

Track | Start | Length | Start sector | End sector
––––––––––––––––––––––––––––-
1 | 0:00.00 | 3:02.60 | 0 | 13709
2 | 3:02.60 | 5:00.42 | 13710 | 36251
3 | 8:03.27 | 3:06.05 | 36252 | 50206
4 | 11:09.32 | 4:45.25 | 50207 | 71606
5 | 15:54.57 | 2:24.00 | 71607 | 82406
6 | 18:18.57 | 2:37.55 | 82407 | 94236
7 | 20:56.37 | 5:29.50 | 94237 | 118961
8 | 26:26.12 | 5:04.20 | 118962 | 141781
9 | 31:30.32 | 3:24.23 | 141782 | 157104
10 | 34:54.55 | 9:01.35 | 157105 | 197714
11 | 43:56.15 | 5:23.72 | 197715 | 222011
12 | 49:20.12 | 2:42.08 | 222012 | 234169
13 | 52:02.20 | 5:20.12 | 234170 | 258181
14 | 57:22.32 | 4:27.55 | 258182 | 278261
15 | 61:50.12 | 4:18.15 | 278262 | 297626
16 | 66:08.27 | 10:16.23 | 297627 | 343849


Range status and errors

Selected range

Filename G:\GUNS N' ROSES\1991- Use Your Illusion I (US 1997 MFSL • UDCD 711)\Guns N' Roses - Use Your Illusion I.wav

Peak level 98.9 %
Range quality 100,0 %
Test CRC BA69A502
Copy CRC BA69A502
Copy OK

No errors occurred


AccurateRip summary

Track 1 accurately ripped (confidence 33) [3DE2D2BE]
Track 2 accurately ripped (confidence 34) [69791689]
Track 3 accurately ripped (confidence 33) [74A1B100]
Track 4 accurately ripped (confidence 34) [5964C2F5]
Track 5 accurately ripped (confidence 33) [ABE764C6]
Track 6 accurately ripped (confidence 33) [526242EF]
Track 7 accurately ripped (confidence 33) [390AE3E8]
Track 8 accurately ripped (confidence 33) [C00F6391]
Track 9 accurately ripped (confidence 33) [6949045F]
Track 10 accurately ripped (confidence 34) [57D68F47]
Track 11 accurately ripped (confidence 33) [BBC4A1D2]
Track 12 accurately ripped (confidence 33) [65029964]
Track 13 accurately ripped (confidence 33) [3CD8DE85]
Track 14 accurately ripped (confidence 33) [C824E1FA]
Track 15 accurately ripped (confidence 33) [68BBBF6F]
Track 16 accurately ripped (confidence 31) [93C10840]

All tracks accurately ripped

End of status report

foobar2000 1.2.9 / Dynamic Range Meter 1.1.1
log date: 2016-12-09 21:37:33

––––––––––––––––––––––––––––––––––––––––
Analyzed: Guns N' Roses / Use Your Illusion I
––––––––––––––––––––––––––––––––––––––––

DR Peak RMS Duration Track
––––––––––––––––––––––––––––––––––––––––
DR10 -0.97 dB -12.67 dB 3:03 01-Right Next Door To Hell
DR11 -0.25 dB -13.82 dB 5:01 02-Dust N' Bones
DR11 -0.29 dB -14.39 dB 3:06 03-Live And Let Die
DR11 -0.15 dB -13.98 dB 4:45 04-Don't Cry (Original)
DR10 -1.10 dB -13.36 dB 2:24 05-Perfect Crime
DR13 -2.21 dB -17.32 dB 2:38 06-You Ain't The First
DR12 -0.27 dB -13.80 dB 5:30 07-Bad Obsession
DR11 -0.23 dB -13.29 dB 5:04 08-Back Off Bitch
DR11 -0.45 dB -14.45 dB 3:24 09-Double Talkin' Jive
DR11 -0.16 dB -14.24 dB 9:01 10-November Rain
DR11 -0.72 dB -13.92 dB 5:24 11-The Garden
DR10 -0.13 dB -12.83 dB 2:42 12-Garden Of Eden
DR12 -0.09 dB -13.71 dB 5:20 13-Don't Damn Me
DR12 -0.20 dB -12.82 dB 4:28 14-Bad Apples
DR12 -0.15 dB -15.24 dB 4:18 15-Dead Horse
DR12 -0.16 dB -14.68 dB 10:16 16-Coma
––––––––––––––––––––––––––––––––––––––––

Number of tracks: 16
Official DR value: DR11

Samplerate: 44100 Hz
Channels: 2
Bits per sample: 16
Bitrate: 901 kbps
Codec: FLAC

[CUETools log; Date: 09.12.2016 21:37:20; Version: 2.1.4]
[CTDB TOCID: MJ6mLvJhDDuaUgYY7fKRBY4DKU4-] found.
Track | CTDB Status
1 | (33/33) Accurately ripped
2 | (31/33) Accurately ripped
3 | (31/33) Accurately ripped
4 | (31/33) Accurately ripped
5 | (33/33) Accurately ripped
6 | (31/33) Accurately ripped
7 | (31/33) Accurately ripped
8 | (31/33) Accurately ripped
9 | (33/33) Accurately ripped
10 | (31/33) Accurately ripped
11 | (33/33) Accurately ripped
12 | (30/33) Accurately ripped
13 | (30/33) Accurately ripped
14 | (30/33) Accurately ripped
15 | (31/33) Accurately ripped
16 | (30/33) Accurately ripped
[AccurateRip ID: 0027a4c7-01e72b40-ee11e810] found.
Track [ CRC | V2 ] Status
01 [3de2d2be|c556e5a8] (35+27/81) Accurately ripped
02 [69791689|4aca7310] (36+25/78) Accurately ripped
03 [74a1b100|f5219aeb] (35+25/77) Accurately ripped
04 [5964c2f5|0d25acff] (36+25/79) Accurately ripped
05 [abe764c6|32a8846e] (35+25/76) Accurately ripped
06 [526242ef|6dee3545] (35+24/76) Accurately ripped
07 [390ae3e8|97c43281] (35+25/76) Accurately ripped
08 [c00f6391|29719c4e] (35+25/77) Accurately ripped
09 [6949045f|10d3dea9] (35+25/76) Accurately ripped
10 [57d68f47|83eceb89] (36+25/79) Accurately ripped
11 [bbc4a1d2|7cd36dc4] (35+25/76) Accurately ripped
12 [65029964|cc25e130] (35+25/76) Accurately ripped
13 [3cd8de85|2881bc8f] (35+25/76) Accurately ripped
14 [c824e1fa|7aa9e260] (35+25/76) Accurately ripped
15 [68bbbf6f|8ed6ff82] (35+25/77) Accurately ripped
16 [93c10840|b88937dc] (33+25/72) Accurately ripped
Offsetted by -30:
01 [22514bd6] (03/81) Accurately ripped
02 [34bf40c7] (04/78) Accurately ripped
03 [92d7f3c4] (04/77) Accurately ripped
04 [c30b2e1f] (05/79) Accurately ripped
05 [c84a9d04] (03/76) Accurately ripped
06 [d6e4b0d7] (04/76) Accurately ripped
07 [054ca40a] (03/76) Accurately ripped
08 [cef8f82d] (04/77) Accurately ripped
09 [7a31a1c9] (03/76) Accurately ripped
10 [48f3dca9] (05/79) Accurately ripped
11 [b1927ab6] (03/76) Accurately ripped
12 [7a66e898] (03/76) Accurately ripped
13 [9a7b7b77] (03/76) Accurately ripped
14 [3bfe0654] (03/76) Accurately ripped
15 [fe5c69f9] (04/77) Accurately ripped
16 [69ecacec] (03/72) Accurately ripped
Offsetted by 6:
01 [a9ccba86] (06/81) Accurately ripped
02 [a737dae3] (05/78) Accurately ripped
03 [a1ca0a0c] (05/77) Accurately ripped
04 [44437a53] (05/79) Accurately ripped
05 [a639f320] (05/76) Accurately ripped
06 [d17b6027] (05/76) Accurately ripped
07 [1030f0ae] (05/76) Accurately ripped
08 [f04712a5] (05/77) Accurately ripped
09 [991a7e7d] (05/76) Accurately ripped
10 [279d7fcd] (05/79) Accurately ripped
11 [5768433e] (05/76) Accurately ripped
12 [c721bcc0] (05/76) Accurately ripped
13 [c3b858bb] (05/76) Accurately ripped
14 [4a930de8] (05/76) Accurately ripped
15 [b13536ed] (05/77) Accurately ripped
16 [02851a84] (04/72) Accurately ripped
Offsetted by -685:
01 [9dbd4a62] (02/81) Accurately ripped
02 [603b3066] (00/78) No match
03 [51235026] (00/77) No match
04 [45bca734] (00/79) No match
05 [096b93a3] (00/76) No match
06 [a40465cb] (00/76) No match
07 [70e8319b] (00/76) No match
08 [e9e4cf7b] (00/77) No match
09 [960863fe] (00/76) No match
10 [83f3a0da] (00/79) No match
11 [284b7a28] (00/76) No match
12 [cd74ff32] (00/76) No match
13 [ec2f3370] (00/76) No match
14 [f2ada001] (00/76) No match
15 [96904abe] (00/77) No match
16 [03503842] (00/72) No match
Offsetted by -667:
01 [e17b01ba] (00/81) No match (V2 was not tested)
02 [19777d74] (00/78) No match (V2 was not tested)
03 [d89c5b4a] (00/77) No match (V2 was not tested)
04 [0658cd4e] (00/79) No match (V2 was not tested)
05 [f8633eb1] (00/76) No match (V2 was not tested)
06 [214fbd73] (00/76) No match (V2 was not tested)
07 [f65a57ed] (00/76) No match (V2 was not tested)
08 [7a8bdcb7] (00/77) No match (V2 was not tested)
09 [257cd258] (00/76) No match (V2 was not tested)
10 [f348726c] (00/79) No match (V2 was not tested)
11 [fb365e6c] (00/76) No match (V2 was not tested)
12 [f3d26946] (00/76) No match (V2 was not tested)
13 [80cda212] (00/76) No match (V2 was not tested)
14 [79f823cb] (00/76) No match (V2 was not tested)
15 [6ffcb138] (00/77) No match (V2 was not tested)
16 [4f9c6f0e] (00/72) No match (V2 was not tested)
Offsetted by -18:
01 [fa251b66] (00/81) No match (V2 was not tested)
02 [b03cc97b] (00/78) No match (V2 was not tested)
03 [ed28a5dc] (00/77) No match (V2 was not tested)
04 [98c89cdb] (00/79) No match (V2 was not tested)
05 [bcefb9b8] (00/76) No match (V2 was not tested)
06 [d516eb47] (00/76) No match (V2 was not tested)
07 [b398bd96] (00/76) No match (V2 was not tested)
08 [2f685655] (00/77) No match (V2 was not tested)
09 [d9d49605] (00/76) No match (V2 was not tested)
10 [e881bdb5] (00/79) No match (V2 was not tested)
11 [e8d9bd8e] (00/76) No match (V2 was not tested)
12 [3ea52f50] (00/76) No match (V2 was not tested)
13 [a83a6fe3] (00/76) No match (V2 was not tested)
14 [40da5e30] (00/76) No match (V2 was not tested)
15 [8f4f58f5] (00/77) No match (V2 was not tested)
16 [4774d174] (00/72) No match (V2 was not tested)

Track Peak [ CRC32 ] [W/O NULL] [ LOG ]
– 98,9 [BA69A502] [FC0B477E] CRC32
01 89,3 [A1EC67D5] [44312A5C]
02 97,1 [ABEEC11A] [AE37CACB]
03 96,7 [E9FB14AC] [1183B2DA]
04 98,2 [68A28EFA] [57EEB405]
05 88,1 [72736DCC] [A2352BC3]
06 77,5 [A8AEED59] [5804C6E7]
07 96,9 [ECFC0006] [D4127711]
08 97,3 [EB6719D1] [51640267]
09 94,9 [7BF57941] [07C3A77C]
10 98,1 [2249FA90] [2F1E7B03]
11 92,0 [7D3F600D] [0B1C6C0C]
12 98,5 [8E5C18E7] [3C9AF6DE]
13 98,9 [FA6463B8] [CD19A597]
14 97,7 [B4FFC9BC] [0F994734]
15 98,2 [0EACC2E6] [FBAA80ED]
16 98,1 [B5DEEB3C] [8A1C8BDA]

Guns N' Roses - Use Your Illusion I (1991) [MFSL, UDCD 711]

All thanks go to the original releaser

Guns N' Roses in my Blog

Download Guns N' Roses - Use Your Illusion I (1991):