Subcategories

Guns N' Roses - Use Your Illusion II (1991) [MFSL, UDCD 712]

Posted By: v3122
Guns N' Roses - Use Your Illusion II (1991) [MFSL, UDCD 712]

Guns N' Roses - Use Your Illusion II (1991)
EAC | Flac(Image) + Cue + Log & MP3 CBR 320Kbps
1997 | Mobile Fidelity Sound Lab, UDCD 712 | ~ 520 or 180 Mb | Scans(jpg) -> 44 Mb
Hard Rock / Glam

Use Your Illusion II is more serious and ambitious than I, but it's also considerably more pretentious. Featuring no less than four songs that run over six minutes, II is heavy on epics, whether it's the charging funk metal of "Locomotive," the antiwar "Civil War," or the multipart "Estranged." As if an attempt to balance the grandiose epics, the record is loaded with an extraordinary amount of filler. "14 Years" may have a lean, Stonesy rhythm, and Duff McKagan's Johnny Thunders homage, "So Fine," may be entertaining, but there's no forgiving the ridiculous "Get in the Ring," where Axl Rose threatens rock journalists by name because they gave him bad reviews; the misinterpretation of Dylan's "Knockin' on Heaven's Door"; another version of "Don't Cry"; and the bizarre closer, "My World," which probably captures Rose's instability as effectively as the tortured poetry of his epics. That said, there are numerous strengths to Use Your Illusion II; a couple of songs have a nervy energy, and for all their pretensions, the overblown epics are effective, though strangely enough, they reveal notorious homophobe Rose's aspirations of being a cross between Elton John and Freddie Mercury. But the pompous production and poor pacing make the album tiring for anyone who isn't a dedicated listener.

by Stephen Thomas Erlewine, allmusic
Guns N' Roses - Use Your Illusion II (1991) [MFSL, UDCD 712]


Guns N' Roses - Use Your Illusion II (1991):

Guns N' Roses - Use Your Illusion II (1991) [MFSL, UDCD 712]

Tracklist:

02. 14 Years [4:22]
03. Yesterdays [3:16]
04. Knockin' On Heaven's Door [5:37]
05. Get In The Ring [5:41]
06. Shotgun Blues [3:24]
07. Breakdown [7:06]
08. Pretty Tied Up [4:48]
09. Locomotive [8:43]
10. So Fine [4:08]
11. Estranged [9:25]
12. You Could Be Mine [5:45]
13. Don't Cry (Alt.Lyrics) [4:45]
14. My World [1:25]

Exact Audio Copy V0.99 prebeta 5 from 4. May 2009

EAC extraction logfile from 25. April 2012, 20:00

Guns N' Roses / Use Your Illusion II

Used drive : ASUS DRW-24B3ST Adapter: 0 ID: 1

Read mode : Secure
Utilize accurate stream : Yes
Defeat audio cache : Yes
Make use of C2 pointers : No

Read offset correction : 6
Overread into Lead-In and Lead-Out : No
Fill up missing offset samples with silence : Yes
Delete leading and trailing silent blocks : No
Null samples used in CRC calculations : Yes
Used interface : Native Win32 interface for Win NT & 2000

Used output format : Internal WAV Routines
Sample format : 44.100 Hz; 16 Bit; Stereo


TOC of the extracted CD

Track | Start | Length | Start sector | End sector
––––––––––––––––––––––––––––-
1 | 0:00.00 | 7:42.60 | 0 | 34709
2 | 7:42.60 | 4:22.30 | 34710 | 54389
3 | 12:05.15 | 3:16.27 | 54390 | 69116
4 | 15:21.42 | 5:36.43 | 69117 | 94359
5 | 20:58.10 | 5:40.40 | 94360 | 119899
6 | 26:38.50 | 3:24.10 | 119900 | 135209
7 | 30:02.60 | 7:06.22 | 135210 | 167181
8 | 37:09.07 | 4:47.45 | 167182 | 188751
9 | 41:56.52 | 8:42.55 | 188752 | 227956
10 | 50:39.32 | 4:07.40 | 227957 | 246521
11 | 54:46.72 | 9:25.20 | 246522 | 288916
12 | 64:12.17 | 5:44.38 | 288917 | 314754
13 | 69:56.55 | 4:45.25 | 314755 | 336154
14 | 74:42.05 | 1:24.45 | 336155 | 342499


Range status and errors

Selected range

Filename G:\GUNS N' ROSES\1991- Use Your Illusion II (US 1997 MFSL • UDCD 712)\Guns N' Roses - Use Your Illusion II.wav

Peak level 100.0 %
Range quality 100.0 %
Test CRC 1C68D04C
Copy CRC 1C68D04C
Copy OK

No errors occurred


AccurateRip summary

Track 1 accurately ripped (confidence 40) [2892D752]
Track 2 accurately ripped (confidence 40) [2D1E9FFE]
Track 3 accurately ripped (confidence 41) [5CB57C52]
Track 4 accurately ripped (confidence 41) [4F769A65]
Track 5 accurately ripped (confidence 40) [229603C4]
Track 6 accurately ripped (confidence 40) [3F588928]
Track 7 accurately ripped (confidence 39) [E546C022]
Track 8 accurately ripped (confidence 40) [A8566EB7]
Track 9 accurately ripped (confidence 39) [7C9F0F0F]
Track 10 accurately ripped (confidence 40) [5A55A7FB]
Track 11 accurately ripped (confidence 40) [80542B96]
Track 12 accurately ripped (confidence 41) [FADA248D]
Track 13 accurately ripped (confidence 42) [994DEBAB]
Track 14 accurately ripped (confidence 40) [0E4A6750]

All tracks accurately ripped

End of status report

foobar2000 1.2.9 / Dynamic Range Meter 1.1.1
log date: 2016-12-11 07:39:40

––––––––––––––––––––––––––––––––––––––––
Analyzed: Guns N' Roses / Use Your Illusion II
––––––––––––––––––––––––––––––––––––––––

DR Peak RMS Duration Track
––––––––––––––––––––––––––––––––––––––––
DR12 -0.79 dB -15.29 dB 7:43 01-Civil War
DR11 -0.80 dB -14.51 dB 4:22 02-14 Years
DR11 -1.27 dB -15.22 dB 3:16 03-Yesterdays
DR11 -1.22 dB -14.68 dB 5:37 04-Knockin' On Heaven's Door
DR10 -1.29 dB -13.67 dB 5:41 05-Get In The Ring
DR10 -2.09 dB -13.98 dB 3:24 06-Shotgun Blues
DR11 -1.02 dB -14.38 dB 7:06 07-Breakdown
DR12 -0.20 dB -14.25 dB 4:48 08-Pretty Tied Up
DR11 -0.99 dB -13.51 dB 8:43 09-Locomotive
DR11 -0.98 dB -15.14 dB 4:08 10-So Fine
DR12 0.00 dB -14.50 dB 9:25 11-Estranged
DR11 -1.37 dB -13.59 dB 5:45 12-You Could Be Mine
DR11 0.00 dB -13.87 dB 4:45 13-Don't Cry (Alt.Lyrics)
DR12 -0.12 dB -14.08 dB 1:25 14-My World
––––––––––––––––––––––––––––––––––––––––

Number of tracks: 14
Official DR value: DR11

Samplerate: 44100 Hz
Channels: 2
Bits per sample: 16
Bitrate: 901 kbps
Codec: FLAC

[CUETools log; Date: 11.12.2016 7:39:27; Version: 2.1.4]
[CTDB TOCID: lGFGu9wNw0VopLvgu8dL2e0XAQg-] found.
Track | CTDB Status
1 | (32/33) Accurately ripped
2 | (33/33) Accurately ripped
3 | (33/33) Accurately ripped
4 | (33/33) Accurately ripped
5 | (33/33) Accurately ripped
6 | (31/33) Accurately ripped
7 | (33/33) Accurately ripped
8 | (31/33) Accurately ripped
9 | (32/33) Accurately ripped
10 | (33/33) Accurately ripped
11 | (31/33) Accurately ripped
12 | (33/33) Accurately ripped
13 | (31/33) Accurately ripped
14 | (31/33) Accurately ripped
[AccurateRip ID: 0027fc0b-01ac6ad2-be11d60e] found.
Track [ CRC | V2 ] Status
01 [2892d752|58798729] (41+29/87) Accurately ripped
02 [2d1e9ffe|4c0916a0] (41+29/87) Accurately ripped
03 [5cb57c52|7b919496] (42+29/88) Accurately ripped
04 [4f769a65|d615b550] (42+29/86) Accurately ripped
05 [229603c4|0f4b9aff] (41+29/85) Accurately ripped
06 [3f588928|6e462379] (41+29/85) Accurately ripped
07 [e546c022|fc842f93] (40+29/84) Accurately ripped
08 [a8566eb7|52c05f48] (41+29/85) Accurately ripped
09 [7c9f0f0f|4b28573b] (40+29/84) Accurately ripped
10 [5a55a7fb|f2e66640] (41+29/85) Accurately ripped
11 [80542b96|a2c0b49e] (41+29/86) Accurately ripped
12 [fada248d|ad66c78a] (42+29/87) Accurately ripped
13 [994debab|36dc558c] (43+29/85) Accurately ripped
14 [0e4a6750|50da11df] (41+29/85) Accurately ripped
Offsetted by 6:
01 [20fbbca2] (06/87) Accurately ripped
02 [7d8fb0e8] (06/87) Accurately ripped
03 [e2c31e3c] (06/88) Accurately ripped
04 [dadbf815] (06/86) Accurately ripped
05 [13306034] (06/85) Accurately ripped
06 [f991b896] (06/85) Accurately ripped
07 [8c88ac22] (06/84) Accurately ripped
08 [3464e899] (06/85) Accurately ripped
09 [a52a1745] (06/84) Accurately ripped
10 [d60e2755] (06/85) Accurately ripped
11 [53699190] (05/86) Accurately ripped
12 [214f9663] (06/87) Accurately ripped
13 [172f238d] (05/85) Accurately ripped
14 [04884aa2] (06/85) Accurately ripped
Offsetted by -30:
01 [4e865cc2] (02/87) Accurately ripped
02 [9ae94b6c] (02/87) Accurately ripped
03 [be7152c0] (02/88) Accurately ripped
04 [967bc5f5] (00/86) No match (V2 was not tested)
05 [6f923594] (00/85) No match (V2 was not tested)
06 [9c3a9c02] (00/85) No match (V2 was not tested)
07 [a0fd2422] (00/84) No match (V2 was not tested)
08 [ec0e0d4d] (00/85) No match (V2 was not tested)
09 [b1e7e601] (00/84) No match (V2 was not tested)
10 [efbb2b39] (00/85) No match (V2 was not tested)
11 [60e92db4] (02/86) Accurately ripped
12 [3a8eeb5f] (02/87) Accurately ripped
13 [23e7d441] (00/85) No match (V2 was not tested)
14 [3f14f6b6] (00/85) No match (V2 was not tested)
Offsetted by -18:
01 [3f582762] (00/87) No match (V2 was not tested)
02 [3bcb6d40] (00/87) No match (V2 was not tested)
03 [ca8c9694] (00/88) No match (V2 was not tested)
04 [ad468155] (00/86) No match (V2 was not tested)
05 [50c6ee74] (00/85) No match (V2 was not tested)
06 [10acfade] (00/85) No match (V2 was not tested)
07 [ef80fc22] (00/84) No match (V2 was not tested)
08 [042b0111] (00/85) No match (V2 was not tested)
09 [02fdf66d] (00/84) No match (V2 was not tested)
10 [e72c29ed] (00/85) No match (V2 was not tested)
11 [0713f9a8] (00/86) No match (V2 was not tested)
12 [8779cf0b] (00/87) No match (V2 was not tested)
13 [1faa4405] (00/85) No match (V2 was not tested)
14 [2b90bd5a] (00/85) No match (V2 was not tested)

Track Peak [ CRC32 ] [W/O NULL] [ LOG ]
– 100,0 [1C68D04C] [1EA44BCE] CRC32
01 91,3 [77B003A6] [32146DC1]
02 91,2 [3EC4CE78] [38A306A5]
03 86,3 [46D273B8] [AFA44FE6]
04 86,8 [76811523] [5B25B58D]
05 86,1 [089CD280] [6FA7AEA5]
06 78,6 [9A66F69C] [9724B77A]
07 88,9 [3EFB9F12] [CAD524B3]
08 97,6 [C891FD18] [950EC55D]
09 89,1 [385E324B] [F21ED958]
10 89,3 [FE31E9CA] [6F5927E9]
11 100,0 [43D661B7] [2259C1C5]
12 85,4 [3EE2DA36] [E4C66459]
13 100,0 [840CBF24] [150FE666]
14 98,6 [D98AD95D] [B456F09B]

Guns N' Roses - Use Your Illusion II (1991) [MFSL, UDCD 712]

All thanks go to the original releaser

Guns N' Roses in my Blog

Download Guns N' Roses - Use Your Illusion II (1991):