Subcategories

Gus Till - Best Of The Rhino Years Vol.1&2 (2007)

Posted By: gribovar
Gus Till - Best Of The Rhino Years Vol.1&2 (2007)

Gus Till - Best Of The Rhino Years Vol.1&2 (2007)
EAC Rip | FLAC (image+.cue+log) - 1,11 GB | MP3 CBR 320 kbps (LAME 3.93) - 374 MB | Covers - 110 MB
Genre: Psy-Trance, Goa Trance | RAR 3% Rec. | Label: Sonic Dragon Records

Gus Till is one of the true pioneers of the psychedelic trance sound. Having worked with music since the 70s he found himself in London at the height of the goa trance moment. He had productions on almost every significant record label of the day - including Dragonfly, Twisted and TIP, but it was his work with the Slinky Wizard and Stoop and Fidget projects on Flying Rhino that earned him a reputation for absolute top quality. Despite this, he never managed to release a full length dance album. With the demise of Flying Rhino, and much more of the older material difficult to find, Gus has chosen to release not one but two compilations of his music. Sonic Dragon is very proud to bring you these releases. The first - the Rhino Years Vol.1 is a compilation of music released during the days of Flying Rhino - many released only on vinyl, and some different mixes of the ones previously released. A solid collection of memories for anyone who was there, and a refreshing introduction to the past for those who weren't.
Rest of the Rhino Daze - the Missing, the Unreleased and a Coupla Classics. Sonic Dragon is proud to present the second in a two part series from one of the pioneers of the psytrance movement, Gus Till. The first part brought to you a collection of Gus's finest work that he has released over the years. However now we have something very special - 7 unreleased tracks (a collection of tracks that never saw the light during those years) and two more classics. Here we present you with some of Gus's finest work, including collaborations with James Munro and Texas Faggott. This is classic psychedelic trance, from an artist who was never afraid to experiment but always produced material at a level of quality that many would try to emulate. A collection like this would have been prized a decade ago, but as a testament to Gus's work still stands a level above the rest today. Whether a collector looking for a new gem, or a recent convert aiming to expand their library, this is a compulsory purchase for anyone with a love for psychedelic trance.

Gus Till - Best Of The Rhino Years Vol.1&2 (2007)

Gus Till - Best Of The Rhino Years Vol.1 (2007)
EAC Rip | FLAC (image+.cue+log) - 549 MB | MP3 CBR 320 kbps (LAME 3.93) - 186 MB | Covers - 56 MB
Genre: Psy-Trance, Goa Trance | RAR 3% Rec. | Label: Sonic Dragon Records (SDREC-11)

Tracklist:
01. Slinky Wizard - Beautiful People (Bus Remix)
02. Bus - Bullett (Correct Mix)
03. Bus vs. Venom - Bugged
04. Slinky Wizard - Fistful Of Mutants
05. Stoop & Fidget - Mefisto
06. Bus - N By NW6 (Correct Unreleased Mix)
07. Bus - Something's Always Out There
08. Busted - Uncontrollable Substance
09. Bus - Finissimo

Total time: 01:18:59

Exact Audio Copy V0.99 prebeta 4 from 23. January 2008

EAC extraction logfile from 18. January 2009, 1:50

Gus Till / Best Of The Rhino Years Vol.1

Used drive : PIONEER DVD-RW DVR-111 Adapter: 3 ID: 0

Read mode : Secure
Utilize accurate stream : Yes
Defeat audio cache : Yes
Make use of C2 pointers : No

Read offset correction : 48
Overread into Lead-In and Lead-Out : No
Fill up missing offset samples with silence : Yes
Delete leading and trailing silent blocks : No
Null samples used in CRC calculations : Yes
Used interface : Installed external ASPI interface

Used output format : User Defined Encoder
Selected bitrate : 1024 kBit/s
Quality : High
Add ID3 tag : No
Command line compressor : C:\Program Files\Exact Audio Copy\Flac\flac.exe
Additional command line options : -8 -V -T "ARTIST=%a" -T "ALBUM=%g" -T "DATE=%y" -T "GENRE=%m" %s -o %d


TOC of the extracted CD

Track | Start | Length | Start sector | End sector
––––––––––––––––––––––––––––-
1 | 0:00.00 | 8:24.33 | 0 | 37832
2 | 8:24.33 | 8:51.15 | 37833 | 77672
3 | 17:15.48 | 8:34.28 | 77673 | 116250
4 | 25:50.01 | 8:52.68 | 116251 | 156218
5 | 34:42.69 | 8:51.19 | 156219 | 196062
6 | 43:34.13 | 9:11.36 | 196063 | 237423
7 | 52:45.49 | 8:49.53 | 237424 | 277151
8 | 61:35.27 | 9:28.31 | 277152 | 319782
9 | 71:03.58 | 7:54.67 | 319783 | 355399


Range status and errors

Selected range

Filename D:\temp\nnm\Gus Till - Best Of The Rhino Years Vol.1.wav

Peak level 96.6 %
Range quality 100.0 %
Test CRC 628FD987
Copy CRC 628FD987
Copy OK

No errors occurred


AccurateRip summary

Track 1 not present in database
Track 2 not present in database
Track 3 not present in database
Track 4 not present in database
Track 5 not present in database
Track 6 not present in database
Track 7 not present in database
Track 8 not present in database
Track 9 not present in database

None of the tracks are present in the AccurateRip database

End of status report

[CUETools log; Date: 04.09.2014 13:54:28; Version: 2.0.9]
[CTDB TOCID: 4eXIlF_cskGBiOsCig.nM4LVzcM-] found.
[ CTDBID ] Status
[d25e5eb1] (4/4) Accurately ripped
[AccurateRip ID: 001b10e6-00c702da-7d128209] found.
Track [ CRC ] Status
01 [83c2d585] (4/4) Accurately ripped
02 [f26d2927] (4/4) Accurately ripped
03 [60cdbb0d] (4/4) Accurately ripped
04 [c6e307b7] (4/4) Accurately ripped
05 [958e258a] (4/4) Accurately ripped
06 [fe40da44] (4/4) Accurately ripped
07 [81e847b1] (4/4) Accurately ripped
08 [8e2dd18d] (4/4) Accurately ripped
09 [5f7c3e32] (4/4) Accurately ripped

Track Peak [ CRC32 ] [W/O NULL] [ LOG ]
– 96,6 [628FD987] [571275A4] CRC32
01 96,6 [B623372F] [EDAB48C7]
02 96,6 [5DDD091D] [07883CF9]
03 96,6 [F66851C1] [2468742A]
04 96,6 [1B6CCE04] [FFCD9010]
05 96,6 [2DA88A9B] [6DA7FCB1]
06 96,6 [895D9E95] [6620C11D]
07 96,6 [53104A81] [D96D99E4]
08 96,6 [69DBB234] [3AF85B49]
09 96,6 [1B2DF0E4] [CE063112]

Gus Till - Best Of The Rhino Years Vol.1&2 (2007)

Gus Till - Best Of The Rhino Years Vol.2 (2007)
EAC Rip | FLAC (image+.cue+log) - 559 MB | MP3 CBR 320 kbps (LAME 3.93) - 188 MB | Covers - 54 MB
Genre: Psy-Trance, Goa Trance | RAR 3% Rec. | Label: Sonic Dragon Records (SDREC-12)

Tracklist:
01. Bus - Fearless Breader
02. Bus - Full Monty Jacket Pt.1
03. Bus - Nostromo
04. Bus - Metatron
05. Bus - 3rd Mind
06. Bus vs. Texas Faggot - Sleep Talk
07. Bus - Generator
08. Stoop & Fidget - Mudless
09. Bus - Let's Go!

Total time: 01:19:53

Exact Audio Copy V0.99 prebeta 4 from 23. January 2008

EAC extraction logfile from 18. January 2009, 2:16

Gus Till / Best Of The Rhino Years Vol.2

Used drive : PIONEER DVD-RW DVR-111 Adapter: 3 ID: 0

Read mode : Secure
Utilize accurate stream : Yes
Defeat audio cache : Yes
Make use of C2 pointers : No

Read offset correction : 48
Overread into Lead-In and Lead-Out : No
Fill up missing offset samples with silence : Yes
Delete leading and trailing silent blocks : No
Null samples used in CRC calculations : Yes
Used interface : Installed external ASPI interface

Used output format : User Defined Encoder
Selected bitrate : 1024 kBit/s
Quality : High
Add ID3 tag : No
Command line compressor : C:\Program Files\Exact Audio Copy\Flac\flac.exe
Additional command line options : -8 -V -T "ARTIST=%a" -T "ALBUM=%g" -T "DATE=%y" -T "GENRE=%m" %s -o %d


TOC of the extracted CD

Track | Start | Length | Start sector | End sector
––––––––––––––––––––––––––––-
1 | 0:00.00 | 7:31.28 | 0 | 33852
2 | 7:31.28 | 8:10.20 | 33853 | 70622
3 | 15:41.48 | 8:37.63 | 70623 | 109460
4 | 24:19.36 | 9:51.10 | 109461 | 153795
5 | 34:10.46 | 9:58.59 | 153796 | 198704
6 | 44:09.30 | 8:12.53 | 198705 | 235657
7 | 52:22.08 | 8:33.00 | 235658 | 274132
8 | 60:55.08 | 10:47.32 | 274133 | 322689
9 | 71:42.40 | 8:10.13 | 322690 | 359452


Range status and errors

Selected range

Filename D:\temp\nnm\Gus Till - Best Of The Rhino Years Vol.2.wav

Peak level 96.6 %
Range quality 100.0 %
Test CRC 40E7CD17
Copy CRC 40E7CD17
Copy OK

No errors occurred


AccurateRip summary

Track 1 not present in database
Track 2 not present in database
Track 3 not present in database
Track 4 not present in database
Track 5 not present in database
Track 6 not present in database
Track 7 not present in database
Track 8 not present in database
Track 9 not present in database

None of the tracks are present in the AccurateRip database

End of status report

[CUETools log; Date: 04.09.2014 13:54:46; Version: 2.0.9]
[CTDB TOCID: 2OH5FEb8yWkDTFTYOJD1RHsZfJs-] found.
[ CTDBID ] Status
[d297ccd6] (5/5) Accurately ripped
[AccurateRip ID: 001ad4a4-00c6ab88-6d12b809] found.
Track [ CRC ] Status
01 [75e4ecbe] (5/5) Accurately ripped
02 [75b63a23] (5/5) Accurately ripped
03 [2bcce6f1] (5/5) Accurately ripped
04 [d434e437] (5/5) Accurately ripped
05 [2164b640] (5/5) Accurately ripped
06 [84611dc5] (5/5) Accurately ripped
07 [166e8c66] (5/5) Accurately ripped
08 [bf4c17c4] (5/5) Accurately ripped
09 [416b43bb] (5/5) Accurately ripped

Track Peak [ CRC32 ] [W/O NULL] [ LOG ]
– 96,6 [40E7CD17] [14181B93] CRC32
01 96,6 [CC93226D] [E1606048]
02 96,6 [1341165F] [90703810]
03 96,6 [D638C3A5] [D6DCD9B9]
04 96,6 [D2CD8A14] [7B1FF9CF]
05 96,6 [1E81DF08] [6A3F0F61]
06 96,6 [209EA84E] [4C535587]
07 96,6 [35BE45EC] [82F72694]
08 96,6 [E13A26CD] [44E1F4E9]
09 96,6 [6583B3DA] [1703737A]

Thanks to _ok

Gus Till - Best Of The Rhino Years Vol.1 (2007)

LOSSLESS:

Filepost.com
_______________

MP3 320 kbps:

Filepost.com
_______________

Covers:

Filepost.com
______________________________________

Gus Till - Best Of The Rhino Years Vol.2 (2007)

LOSSLESS:

Filepost.com
_______________

MP3 320 kbps:

Filepost.com
_______________

Covers:

Filepost.com