Subcategories

Gustavo Núñez, Academy of St. Martin in the Fields - Vivaldi: Bassoon Concertos (2015)

Posted By: tirexiss
Gustavo Núñez, Academy of St. Martin in the Fields - Vivaldi: Bassoon Concertos (2015)

Gustavo Núñez, Academy of St. Martin in the Fields - Vivaldi: Bassoon Concertos (2015)
EAC | FLAC (image+.cue, log) | Covers + Digital Booklet | 59:35 | 298 MB
Genre: Classical | Label: Pentatone Music | Catalog: PTC 5186 539

It would be no exaggeration to name Antonio Vivaldi as the “pioneer of the bassoon concerto”. The first milestone in the emancipation of the bassoon, until the beginning of the 17 century exclusively used as a basso continuo instrument, for which the part wasn’t even written out, was a series of nine virtuoso bassoon sonatas published by Giovanni Antonio Bertoli in 1645. Then came Antonio Vivaldi, who didn’t only write probably the first solo concerto for bassoon ever composed, but who also created the largest group of works ever written for the instrument until then: 39 solo concertos, all of excellent quality. There was only one instrument for which Vivaldi wrote more concerti, namely the violin. It is most likely an indication of Vivaldi’s fondness of the bassoon. Unfortunately there are no historical sources to determine for whom Vivaldi wrote the bassoon concerti, but given their technical demands and the quality of the musical writing, one can assume they were written for an accomplished virtuoso. Perhaps they were composed for one of the members of the orchestra of the Ospedale della Pietà, a home for abandoned and orphaned children in Venice, where Vivaldi was violin teacher and music director for more than 30 years. Under his direction the orchestra became one of the most famous ensembles in Europe.
This album combines six bassoon concerti by Vivaldi, performed by Uruguayan bassoonist Gustavo Núñez, who holds the position of principal bassoonist with the Royal Concertgebouw Orchestra and who is considered one of the best bassoonists of his generation. He is accompanied by the Academy of St Martin in the Fields, by many considered as one of the world’s most admired chamber orchestras.

Gustavo Núñez, Academy of St. Martin in the Fields - Vivaldi: Bassoon Concertos (2015)

Track List:

Antonio Vivaldi

[1]-[3] Bassoon Concerto in C major, RV 474
[4]-[6] Bassoon Concerto in F major, RV 488
[7]-[10] Bassoon Concerto in B-fl at major, RV 501 (La Notte)
[11]-[13] Bassoon Concerto in C major, RV 477
[14]-[16] Bassoon Concerto in A minor, RV 497
[17]-[19] Bassoon Concerto in C major, RV 467

Performers:
Gustavo Núñez, bassoon
Academy of St Martin in the Fields
Tomo Keller, leader

Exact Audio Copy V1.1 from 23. June 2015

EAC extraction logfile from 7. July 2016, 2:43

Gustavo Núñez, Academy of St Martin in the Fields / Vivaldi - Bassoon Concertos

Used drive : HL-DT-STDVDRAM GU70N Adapter: 1 ID: 0

Read mode : Secure
Utilize accurate stream : Yes
Defeat audio cache : Yes
Make use of C2 pointers : No

Read offset correction : 48
Overread into Lead-In and Lead-Out : No
Fill up missing offset samples with silence : Yes
Delete leading and trailing silent blocks : No
Null samples used in CRC calculations : Yes
Used interface : Native Win32 interface for Win NT & 2000

Used output format : User Defined Encoder
Selected bitrate : 128 kBit/s
Quality : High
Add ID3 tag : No
Command line compressor : C:\Program Files (x86)\Exact Audio Copy\Flac\flac.exe
Additional command line options : -V -8 -T "Date=%year%" -T "Genre=%genre%" %source%


TOC of the extracted CD

Track | Start | Length | Start sector | End sector
––––––––––––––––––––––––––––-
1 | 0:00.00 | 2:57.17 | 0 | 13291
2 | 2:57.17 | 4:04.15 | 13292 | 31606
3 | 7:01.32 | 2:25.34 | 31607 | 42515
4 | 9:26.66 | 2:58.26 | 42516 | 55891
5 | 12:25.17 | 2:53.07 | 55892 | 68873
6 | 15:18.24 | 2:26.15 | 68874 | 79838
7 | 17:44.39 | 1:52.71 | 79839 | 88309
8 | 19:37.35 | 1:47.37 | 88310 | 96371
9 | 21:24.72 | 2:25.43 | 96372 | 107289
10 | 23:50.40 | 3:10.49 | 107290 | 121588
11 | 27:01.14 | 3:56.26 | 121589 | 139314
12 | 30:57.40 | 4:13.62 | 139315 | 158351
13 | 35:11.27 | 3:42.63 | 158352 | 175064
14 | 38:54.15 | 3:38.34 | 175065 | 191448
15 | 42:32.49 | 3:25.42 | 191449 | 206865
16 | 45:58.16 | 2:38.64 | 206866 | 218779
17 | 48:37.05 | 4:10.25 | 218780 | 237554
18 | 52:47.30 | 3:12.53 | 237555 | 252007
19 | 56:00.08 | 3:33.10 | 252008 | 267992


Range status and errors

Selected range

Filename C:\temp\Vivaldi - Bassoon Concertos - Nunez\Vivaldi - Bassoon Concertos.wav

Peak level 88.5 %
Extraction speed 5.2 X
Range quality 100.0 %
Test CRC D01062C6
Copy CRC D01062C6
Copy OK

No errors occurred


AccurateRip summary

Track 1 accurately ripped (confidence 2) [C86092AE] (AR v2)
Track 2 accurately ripped (confidence 2) [8E94800C] (AR v2)
Track 3 accurately ripped (confidence 2) [0180ABEA] (AR v2)
Track 4 accurately ripped (confidence 2) [D541979A] (AR v2)
Track 5 accurately ripped (confidence 2) [7BD51882] (AR v2)
Track 6 accurately ripped (confidence 2) [DD5F6429] (AR v2)
Track 7 accurately ripped (confidence 2) [77D49EA3] (AR v2)
Track 8 accurately ripped (confidence 2) [343F71C3] (AR v2)
Track 9 accurately ripped (confidence 2) [570DDFD8] (AR v2)
Track 10 accurately ripped (confidence 2) [4D31194C] (AR v2)
Track 11 accurately ripped (confidence 2) [E0B11C7C] (AR v2)
Track 12 accurately ripped (confidence 2) [1C43B92F] (AR v2)
Track 13 accurately ripped (confidence 2) [B3AFEEDA] (AR v2)
Track 14 accurately ripped (confidence 2) [B1C82788] (AR v2)
Track 15 accurately ripped (confidence 2) [47F3E200] (AR v2)
Track 16 accurately ripped (confidence 2) [D80437B5] (AR v2)
Track 17 accurately ripped (confidence 2) [D538DBB0] (AR v2)
Track 18 accurately ripped (confidence 2) [B76421BB] (AR v2)
Track 19 accurately ripped (confidence 2) [56B9F443] (AR v2)

All tracks accurately ripped

End of status report

==== Log checksum 9C67675B6C54BADBE4CB8C80AC28BF8564F1B08681D1986330DEF198BE702794 ====

[CUETools log; Date: 30.04.2017 22:28:47; Version: 2.1.5]
[CTDB TOCID: aBAxwlH65gur0ohg0z8I1ZeESso-] found.
Track | CTDB Status
1 | (11/11) Accurately ripped
2 | (11/11) Accurately ripped
3 | (11/11) Accurately ripped
4 | (11/11) Accurately ripped
5 | (11/11) Accurately ripped
6 | (11/11) Accurately ripped
7 | (11/11) Accurately ripped
8 | (11/11) Accurately ripped
9 | (11/11) Accurately ripped
10 | (11/11) Accurately ripped
11 | (11/11) Accurately ripped
12 | (11/11) Accurately ripped
13 | (11/11) Accurately ripped
14 | (11/11) Accurately ripped
15 | (11/11) Accurately ripped
16 | (11/11) Accurately ripped
17 | (11/11) Accurately ripped
18 | (11/11) Accurately ripped
19 | (11/11) Accurately ripped
[AccurateRip ID: 0026f484-0225d35d-140df513] found.
Track [ CRC | V2 ] Status
01 [ac394bab|c86092ae] (0+6/6) Accurately ripped
02 [36fdc7da|8e94800c] (0+6/6) Accurately ripped
03 [91c73850|0180abea] (0+6/6) Accurately ripped
04 [dae9ebcd|d541979a] (0+6/6) Accurately ripped
05 [7109dd19|7bd51882] (0+6/6) Accurately ripped
06 [fd84e1c3|dd5f6429] (0+6/6) Accurately ripped
07 [babd763e|77d49ea3] (0+6/6) Accurately ripped
08 [b802631b|343f71c3] (0+6/6) Accurately ripped
09 [a86b2254|570ddfd8] (0+6/6) Accurately ripped
10 [9ffd56f8|4d31194c] (0+6/6) Accurately ripped
11 [49334391|e0b11c7c] (0+6/6) Accurately ripped
12 [71b9d549|1c43b92f] (0+6/6) Accurately ripped
13 [0e03b6dc|b3afeeda] (0+6/6) Accurately ripped
14 [a1a4b410|b1c82788] (0+6/6) Accurately ripped
15 [c8f10c58|47f3e200] (0+6/6) Accurately ripped
16 [a345bebe|d80437b5] (0+6/6) Accurately ripped
17 [261ec050|d538dbb0] (0+6/6) Accurately ripped
18 [2c5029d7|b76421bb] (0+6/6) Accurately ripped
19 [f93be2d5|56b9f443] (0+6/6) Accurately ripped

Track Peak [ CRC32 ] [W/O NULL] [ LOG ]
– 88,5 [D01062C6] [DA1A4828] CRC32
01 73,5 [91776DB4] [9DE80067]
02 43,8 [6F5EA556] [92EE5571]
03 67,3 [CE33B47A] [4AA8C9AA]
04 84,7 [3FCBBF89] [A3A93ED3]
05 42,1 [7883A639] [F1A9686E]
06 88,5 [7ECA7875] [5946C236]
07 41,1 [58EC2CB8] [5572ED8D]
08 85,8 [145F3D12] [748975E7]
09 34,7 [DFFD0878] [164A6F0E]
10 59,7 [A45007DD] [DA9B6079]
11 72,4 [11C73E7A] [4159A761]
12 35,9 [62D7C219] [F23EE894]
13 83,9 [23DFBC6A] [CA431832]
14 88,2 [F429D533] [F32EDD42]
15 42,0 [72ED135D] [EC30211F]
16 77,1 [DED232FA] [B2812AE3]
17 88,0 [E10F6EEF] [AF2FC5DE]
18 33,1 [94A8779C] [666CB0B4]
19 67,1 [26A5F64B] [7FD8D87F]

Thanks to the Original ripper A-Z!

Download: