Tags
Language
Tags

Hobo - I Love You Budapest (1993) {Mega}

Posted By: TestTickles
Hobo - I Love You Budapest (1993) {Mega}

Hobo - I Love You Budapest (1993) {Mega}
EAC Rip | FLAC with CUE and LOG | scans | 362 mb
MP3 CBR 320 kbps | RAR | 142 mb
Genre: blues rock

I Love You Budapest is the 1993 album by Hungarian blues rock band Hobo. This was released by the Mega label.

Hobo - I Love You Budapest (1993) {Mega}

01. Hello, Jol Vagyok
02. Hangyadal
03. I Love You Budapest I
04. Kaland Az Egen
05. Szabad Europa Szalon
06. A Kesei Apasag Gyonyoruseges Illuzioja
07. Az Artatlansag Kisertese
08. Hajnali Magany Es Remeny
09. Intermezzo
10. I Love You Budapest II
11. Bolcselkedes A Bolcso Folott
12. I Love You Budapest III
13. Fiuk Iskolaja
14. I Love You Budapest IV
15. A Bosszu Angyala
16. A Legnagyobb Fiu Legkisebb Fia
17. Alom
18. A Varoslako Uzenete

Exact Audio Copy V1.3 from 2. September 2016

EAC extraction logfile from 2. April 2019, 8:18

Hobo / I Love You Budapest

Used drive : PIONEER BD-RW BDR-209D Adapter: 1 ID: 1

Read mode : Secure
Utilize accurate stream : Yes
Defeat audio cache : Yes
Make use of C2 pointers : No

Read offset correction : 667
Overread into Lead-In and Lead-Out : No
Fill up missing offset samples with silence : Yes
Delete leading and trailing silent blocks : No
Null samples used in CRC calculations : Yes
Used interface : Native Win32 interface for Win NT & 2000

Used output format : User Defined Encoder
Selected bitrate : 1024 kBit/s
Quality : High
Add ID3 tag : No
Command line compressor : C:\Program Files (x86)\Exact Audio Copy\Flac\flac.exe
Additional command line options : -6 -V -T "ARTIST=%artist%" -T "TITLE=%title%" -T "ALBUM=%albumtitle%" -T "DATE=%year%" -T "TRACKNUMBER=%tracknr%" -T "GENRE=%genre%" -T "COMMENT=%comment%" -T "BAND=%albuminterpret%" -T "ALBUMARTIST=%albuminterpret%" -T "COMPOSER=%composer%" %haslyrics%–tag-from-file=LYRICS="%lyricsfile%"%haslyrics% -T "DISCNUMBER=%cdnumber%" -T "TOTALDISCS=%totalcds%" -T "TOTALTRACKS=%numtracks%" %hascover%–picture="%coverfile%"%hascover% %source% -o %dest%

TOC of the extracted CD

Track | Start | Length | Start sector | End sector
––––––––––––––––––––––––––––-
1 | 0:00.00 | 2:46.32 | 0 | 12481
2 | 2:46.32 | 2:25.53 | 12482 | 23409
3 | 5:12.10 | 2:34.57 | 23410 | 35016
4 | 7:46.67 | 3:36.63 | 35017 | 51279
5 | 11:23.55 | 4:15.37 | 51280 | 70441
6 | 15:39.17 | 5:52.00 | 70442 | 96841
7 | 21:31.17 | 5:52.10 | 96842 | 123251
8 | 27:23.27 | 4:43.55 | 123252 | 144531
9 | 32:07.07 | 0:17.15 | 144532 | 145821
10 | 32:24.22 | 2:24.28 | 145822 | 156649
11 | 34:48.50 | 3:01.15 | 156650 | 170239
12 | 37:49.65 | 1:34.60 | 170240 | 177349
13 | 39:24.50 | 2:15.07 | 177350 | 187481
14 | 41:39.57 | 1:48.43 | 187482 | 195624
15 | 43:28.25 | 2:46.35 | 195625 | 208109
16 | 46:14.60 | 3:53.50 | 208110 | 225634
17 | 50:08.35 | 2:38.40 | 225635 | 237524
18 | 52:47.00 | 6:47.17 | 237525 | 268066

Range status and errors

Selected range

Filename C:\cuntfist\FLAC\Hobo - I Love You Budapest (1993) [FLAC] {Mega}\Hobo - I Love You Budapest.wav

Peak level 98.5 %
Extraction speed 4.7 X
Range quality 100.0 %
Test CRC 8DF50D19
Copy CRC 8DF50D19
Copy OK

No errors occurred

End of status report

–– CUETools DB Plugin V2.1.6

[CTDB TOCID: 8VXELMfVWagXj8E0LqMs_tEiO8E-] disk not present in database
Submit result: 8VXELMfVWagXj8E0LqMs_tEiO8E- has been uploaded

==== Log checksum 5D16A7671C090CE86C7513105B19064290F814808F4C6790E1A315168A156FE5 ====


Hobo - I Love You Budapest (1993) {Mega}


Thank you to the original uploader.