Subcategories

House Of Pain - Who's The Man? (US CD5) (1993) {Tommy Boy} **[RE-UP]**

Posted By: TestTickles
House Of Pain - Who's The Man? (US CD5) (1993) {Tommy Boy} **[RE-UP]**

House Of Pain - Who's The Man? (US CD5) (1993) {Tommy Boy}
EAC Rip | FLAC with CUE and log | scans | 102 mb
MP3 CBR 320kbps | RAR | 38 mb
Genre: hip-hop, rap

Who's The Man? is the 1993 single by American rap group House Of Pain. This was the group's release for the title track to the film of the same name and was released by Tommy Boy Records.

House Of Pain - Who's The Man? (US CD5) (1993) {Tommy Boy} **[RE-UP]**

1. Who's The Man? (Vocal)
1. Who's The Man? (Instrumental)
3. Put On Your Shit Kickers (T-Ray Remix)
3. Put On Your Shit Kickers (Kick Some)

Tracks 1 & 2 produced by DJ Lethal and Everlast
Tracks 3 & 4 originally produced by DJ Muggs
Tracks 3 & 4 remixed by T-Ray

Exact Audio Copy V1.1 from 23. June 2015

EAC extraction logfile from 11. November 2016, 14:46

House Of Pain / Who's The Man (US CD5)

Used drive : TEAC DVD-ROM DV-28SW Adapter: 1 ID: 0

Read mode : Secure
Utilize accurate stream : Yes
Defeat audio cache : Yes
Make use of C2 pointers : No

Read offset correction : 6
Overread into Lead-In and Lead-Out : No
Fill up missing offset samples with silence : Yes
Delete leading and trailing silent blocks : No
Null samples used in CRC calculations : Yes
Used interface : Native Win32 interface for Win NT & 2000
Gap handling : Appended to previous track

Used output format : Internal WAV Routines
Sample format : 44.100 Hz; 16 Bit; Stereo


TOC of the extracted CD

Track | Start | Length | Start sector | End sector
––––––––––––––––––––––––––––-
1 | 0:00.00 | 4:06.22 | 0 | 18471
2 | 4:06.22 | 4:06.25 | 18472 | 36946
3 | 8:12.47 | 4:06.20 | 36947 | 55416
4 | 12:18.67 | 4:04.43 | 55417 | 73759


Track 1

Filename C:\My Documents\My FLAC\House Of Pain - Who's The Man (US CD5) (1993) [FLAC] {Tommy Boy}\01 - Who's The Man (Vocal).wav

Pre-gap length 0:00:02.00

Peak level 97.7 %
Extraction speed 2.4 X
Track quality 99.9 %
Test CRC 7EF64B28
Copy CRC 7EF64B28
Accurately ripped (confidence 2) [18D73BF3] (AR v2)
Copy OK

Track 2

Filename C:\My Documents\My FLAC\House Of Pain - Who's The Man (US CD5) (1993) [FLAC] {Tommy Boy}\02 - Who's The Man (Instrumental).wav

Pre-gap length 0:00:05.71

Peak level 97.7 %
Extraction speed 2.7 X
Track quality 99.9 %
Test CRC FD86E164
Copy CRC FD86E164
Accurately ripped (confidence 2) [6B0E7C7A] (AR v2)
Copy OK

Track 3

Filename C:\My Documents\My FLAC\House Of Pain - Who's The Man (US CD5) (1993) [FLAC] {Tommy Boy}\03 - Put On Your Shit Kickers (T-Ray Remix).wav

Pre-gap length 0:00:05.71

Peak level 97.7 %
Extraction speed 3.4 X
Track quality 100.0 %
Test CRC 24FCD7A5
Copy CRC 24FCD7A5
Accurately ripped (confidence 2) [68B8BEB8] (AR v2)
Copy OK

Track 4

Filename C:\My Documents\My FLAC\House Of Pain - Who's The Man (US CD5) (1993) [FLAC] {Tommy Boy}\04 - Put On Your Shit Kickers (Kick Some).wav

Pre-gap length 0:00:05.71

Peak level 97.7 %
Extraction speed 3.7 X
Track quality 100.0 %
Test CRC B2AF7023
Copy CRC B2AF7023
Accurately ripped (confidence 2) [2651C124] (AR v2)
Copy OK


All tracks accurately ripped

No errors occurred

End of status report

–– CUETools DB Plugin V2.1.6

[CTDB TOCID: rCeFFrU6bchEYJXzhTzQxAP33T8-] found
Submit result: rCeFFrU6bchEYJXzhTzQxAP33T8- has been confirmed
Track | CTDB Status
1 | (2/2) Accurately ripped
2 | (2/2) Accurately ripped
3 | (2/2) Accurately ripped
4 | (2/2) Accurately ripped


==== Log checksum 652C06548B061B4A15A1A4E7922A7841289244CE53867C406AC72DE2D39B99ED ====


House Of Pain - Who's The Man? (US CD5) (1993) {Tommy Boy} **[RE-UP]**