Subcategories

VA - Heavenly Harpsichord (2003) {Direct Source} **[RE-UP]**

Posted By: TestTickles
VA - Heavenly Harpsichord (2003) {Direct Source} **[RE-UP]**

VA - Heavenly Harpsichord (2003) {Direct Source}
EAC Rip | FLAC with CUE and log | scans | 403 mb
MP3 CBR 320kbps | RAR | 149 mb
Genre: classical

Heavenly Harpsichord is a 2003 compilation CD created by the Direct Source label. It is merely a split disc between Joel Spiegelman and the Accedemia Della Magnifica Comunita, all performing the works of Bach.

VA - Heavenly Harpsichord (2003) {Direct Source} **[RE-UP]**

01. Joel Spiegelman - Goldberg Variations- Aria - Bach
02. Joel Spiegelman - Goldberg Variations- Variations 1-3 - Bach
03. Joel Spiegelman - Goldberg Variations- Variations 4-6 - Bach
04. Joel Spiegelman - Goldberg Variations- Variations 7-9 - Bach
05. Joel Spiegelman - Goldberg Variations- Variations 10-12 - Bach
06. Joel Spiegelman - Goldberg Variations- Variations 13-15 - Bach
07. Joel Spiegelman - Goldberg Variations- Variations 16-18 - Bach
08. Joel Spiegelman - Goldberg Variations- Variations 19-21 - Bach
09. Joel Spiegelman - Goldberg Variations- Variations 22-24 - Bach
10. Joel Spiegelman - Goldberg Variations- Variations 25-27 - Bach
11. Joel Spiegelman - Goldberg Variations- Variations 28-30 - Bach
12. Joel Spiegelman - Goldberg Variations- Aria Da Capo - Bach
13. Accedemia Della Magnifica Comunita - Concerto For Harpsichord In D Major- Allegro - Bach
14. Accedemia Della Magnifica Comunita - Concerto For Harpsichord In D Major- Andante - Bach
15. Accedemia Della Magnifica Comunita - Concerto For Harpsichord In D Major- Allegro Assai - Bach

Exact Audio Copy V1.1 from 23. June 2015

EAC extraction logfile from 5. December 2016, 11:36

Various Artists / Heavenly Harpsichord

Used drive : TEAC DVD-ROM DV-28SW Adapter: 1 ID: 0

Read mode : Secure
Utilize accurate stream : Yes
Defeat audio cache : Yes
Make use of C2 pointers : No

Read offset correction : 6
Overread into Lead-In and Lead-Out : No
Fill up missing offset samples with silence : Yes
Delete leading and trailing silent blocks : No
Null samples used in CRC calculations : Yes
Used interface : Native Win32 interface for Win NT & 2000
Gap handling : Appended to previous track

Used output format : Internal WAV Routines
Sample format : 44.100 Hz; 16 Bit; Stereo


TOC of the extracted CD

Track | Start | Length | Start sector | End sector
––––––––––––––––––––––––––––-
1 | 0:00.00 | 2:09.17 | 0 | 9691
2 | 2:09.17 | 4:30.56 | 9692 | 29997
3 | 6:39.73 | 3:37.16 | 29998 | 46288
4 | 10:17.14 | 3:16.49 | 46289 | 61037
5 | 13:33.63 | 4:05.47 | 61038 | 79459
6 | 17:39.35 | 6:05.68 | 79460 | 106902
7 | 23:45.28 | 5:27.46 | 106903 | 131473
8 | 29:12.74 | 3:38.04 | 131474 | 147827
9 | 32:51.03 | 4:04.13 | 147828 | 166140
10 | 36:55.16 | 7:18.03 | 166141 | 198993
11 | 44:13.19 | 3:56.49 | 198994 | 216742
12 | 48:09.68 | 2:07.16 | 216743 | 226283
13 | 50:17.09 | 7:22.27 | 226284 | 259460
14 | 57:39.36 | 5:54.16 | 259461 | 286026
15 | 63:33.52 | 2:39.35 | 286027 | 297986


Track 1

Filename C:\My Documents\My FLAC\VA - Heavenly Harpsichord (2003) [FLAC] {Direct Source}\01 - Joel Spiegelman - Goldberg Variations- Aria - Bach.wav

Pre-gap length 0:00:02.00

Peak level 54.7 %
Extraction speed 1.4 X
Track quality 100.0 %
Test CRC 174298BE
Copy CRC 174298BE
Accurately ripped (confidence 2) [B49A9E54] (AR v2)
Copy OK

Track 2

Filename C:\My Documents\My FLAC\VA - Heavenly Harpsichord (2003) [FLAC] {Direct Source}\02 - Joel Spiegelman - Goldberg Variations- Variations 1-3 - Bach.wav

Pre-gap length 0:00:02.00

Peak level 66.0 %
Extraction speed 1.9 X
Track quality 100.0 %
Test CRC 399A74BF
Copy CRC 399A74BF
Accurately ripped (confidence 2) [3D09D893] (AR v2)
Copy OK

Track 3

Filename C:\My Documents\My FLAC\VA - Heavenly Harpsichord (2003) [FLAC] {Direct Source}\03 - Joel Spiegelman - Goldberg Variations- Variations 4-6 - Bach.wav

Pre-gap length 0:00:02.00

Peak level 92.7 %
Extraction speed 2.0 X
Track quality 100.0 %
Test CRC 9B62B9C6
Copy CRC 9B62B9C6
Accurately ripped (confidence 2) [64CD88CC] (AR v2)
Copy OK

Track 4

Filename C:\My Documents\My FLAC\VA - Heavenly Harpsichord (2003) [FLAC] {Direct Source}\04 - Joel Spiegelman - Goldberg Variations- Variations 7-9 - Bach.wav

Pre-gap length 0:00:02.00

Peak level 80.3 %
Extraction speed 2.2 X
Track quality 100.0 %
Test CRC 5B67DDCB
Copy CRC 5B67DDCB
Accurately ripped (confidence 2) [B64B37D4] (AR v2)
Copy OK

Track 5

Filename C:\My Documents\My FLAC\VA - Heavenly Harpsichord (2003) [FLAC] {Direct Source}\05 - Joel Spiegelman - Goldberg Variations- Variations 10-12 - Bach.wav

Pre-gap length 0:00:02.00

Peak level 93.8 %
Extraction speed 2.4 X
Track quality 100.0 %
Test CRC 1E4EEF5D
Copy CRC 1E4EEF5D
Accurately ripped (confidence 2) [25344BC3] (AR v2)
Copy OK

Track 6

Filename C:\My Documents\My FLAC\VA - Heavenly Harpsichord (2003) [FLAC] {Direct Source}\06 - Joel Spiegelman - Goldberg Variations- Variations 13-15 - Bach.wav

Pre-gap length 0:00:02.00

Peak level 56.7 %
Extraction speed 2.1 X
Track quality 100.0 %
Test CRC 5544D295
Copy CRC 5544D295
Accurately ripped (confidence 2) [AE455090] (AR v2)
Copy OK

Track 7

Filename C:\My Documents\My FLAC\VA - Heavenly Harpsichord (2003) [FLAC] {Direct Source}\07 - Joel Spiegelman - Goldberg Variations- Variations 16-18 - Bach.wav

Pre-gap length 0:00:02.00

Peak level 93.2 %
Extraction speed 2.7 X
Track quality 100.0 %
Test CRC 4E048573
Copy CRC 4E048573
Accurately ripped (confidence 2) [3DD5E717] (AR v2)
Copy OK

Track 8

Filename C:\My Documents\My FLAC\VA - Heavenly Harpsichord (2003) [FLAC] {Direct Source}\08 - Joel Spiegelman - Goldberg Variations- Variations 19-21 - Bach.wav

Pre-gap length 0:00:02.00

Peak level 66.8 %
Extraction speed 2.8 X
Track quality 100.0 %
Test CRC 70167C0D
Copy CRC 70167C0D
Accurately ripped (confidence 2) [902D9975] (AR v2)
Copy OK

Track 9

Filename C:\My Documents\My FLAC\VA - Heavenly Harpsichord (2003) [FLAC] {Direct Source}\09 - Joel Spiegelman - Goldberg Variations- Variations 22-24 - Bach.wav

Pre-gap length 0:00:02.00

Peak level 71.8 %
Extraction speed 2.9 X
Track quality 100.0 %
Test CRC 4FC81CA8
Copy CRC 4FC81CA8
Accurately ripped (confidence 2) [B93CCC8F] (AR v2)
Copy OK

Track 10

Filename C:\My Documents\My FLAC\VA - Heavenly Harpsichord (2003) [FLAC] {Direct Source}\10 - Joel Spiegelman - Goldberg Variations- Variations 25-27 - Bach.wav

Pre-gap length 0:00:02.00

Peak level 55.7 %
Extraction speed 2.9 X
Track quality 100.0 %
Test CRC 0BCC57F3
Copy CRC 0BCC57F3
Accurately ripped (confidence 2) [34EA9E0B] (AR v2)
Copy OK

Track 11

Filename C:\My Documents\My FLAC\VA - Heavenly Harpsichord (2003) [FLAC] {Direct Source}\11 - Joel Spiegelman - Goldberg Variations- Variations 28-30 - Bach.wav

Pre-gap length 0:00:02.00

Peak level 81.6 %
Extraction speed 3.1 X
Track quality 100.0 %
Test CRC DFD6FDB1
Copy CRC DFD6FDB1
Accurately ripped (confidence 2) [D44A950F] (AR v2)
Copy OK

Track 12

Filename C:\My Documents\My FLAC\VA - Heavenly Harpsichord (2003) [FLAC] {Direct Source}\12 - Joel Spiegelman - Goldberg Variations- Aria Da Capo - Bach.wav

Pre-gap length 0:00:02.00

Peak level 39.6 %
Extraction speed 2.8 X
Track quality 100.0 %
Test CRC 17E405DD
Copy CRC 17E405DD
Accurately ripped (confidence 2) [8C0D2314] (AR v2)
Copy OK

Track 13

Filename C:\My Documents\My FLAC\VA - Heavenly Harpsichord (2003) [FLAC] {Direct Source}\13 - Accedemia Della Magnifica Comunita - Concerto For Harpsichord In D Major- Allegro - Bach.wav

Pre-gap length 0:00:02.00

Peak level 95.9 %
Extraction speed 2.9 X
Track quality 100.0 %
Test CRC DB609CA8
Copy CRC DB609CA8
Accurately ripped (confidence 2) [ED0A9C78] (AR v2)
Copy OK

Track 14

Filename C:\My Documents\My FLAC\VA - Heavenly Harpsichord (2003) [FLAC] {Direct Source}\14 - Accedemia Della Magnifica Comunita - Concerto For Harpsichord In D Major- Andante - Bach.wav

Pre-gap length 0:00:02.00

Peak level 55.0 %
Extraction speed 3.3 X
Track quality 99.9 %
Test CRC 000B47F9
Copy CRC 000B47F9
Accurately ripped (confidence 2) [CC6086BE] (AR v2)
Copy OK

Track 15

Filename C:\My Documents\My FLAC\VA - Heavenly Harpsichord (2003) [FLAC] {Direct Source}\15 - Accedemia Della Magnifica Comunita - Concerto For Harpsichord In D Major- Allegro Assai - Bach.wav

Pre-gap length 0:00:02.00

Peak level 66.2 %
Extraction speed 2.8 X
Track quality 100.0 %
Test CRC B802540A
Copy CRC B802540A
Accurately ripped (confidence 2) [A71C6F15] (AR v2)
Copy OK


All tracks accurately ripped

No errors occurred

End of status report

–– CUETools DB Plugin V2.1.6

[CTDB TOCID: 6FcsT0wUWdPMdqHqJ6tJssVxqU8-] found
Submit result: 6FcsT0wUWdPMdqHqJ6tJssVxqU8- has been confirmed
Track | CTDB Status
1 | (2/2) Accurately ripped
2 | (2/2) Accurately ripped
3 | (2/2) Accurately ripped
4 | (2/2) Accurately ripped
5 | (2/2) Accurately ripped
6 | (2/2) Accurately ripped
7 | (2/2) Accurately ripped
8 | (2/2) Accurately ripped
9 | (2/2) Accurately ripped
10 | (2/2) Accurately ripped
11 | (2/2) Accurately ripped
12 | (2/2) Accurately ripped
13 | (2/2) Accurately ripped
14 | (2/2) Accurately ripped
15 | (2/2) Accurately ripped


==== Log checksum EE22355A25DEC186DBA86230A1746D63BC79D4CE7DF3FDD83B0830D1E3588DEF ====


VA - Heavenly Harpsichord (2003) {Direct Source} **[RE-UP]**