Subcategories

VA - He Got Out His Big Ten Inch: A Cornucopia of Risque R&B, Rude Blues and Double-Entendre Doo-Wop (3CD) (2004) **[RE-UP]**

Posted By: TestTickles
VA - He Got Out His Big Ten Inch: A Cornucopia of Risque R&B, Rude Blues and Double-Entendre Doo-Wop (3CD) (2004) **[RE-UP]**

VA - He Got Out His Big Ten Inch: A Cornucopia of Risque R&B, Rude Blues and Double-Entendre Doo-Wop (3CD Box Set) (2004)
EAC Rip | FLAC with CUE and log | scans | 965 mb
MP3 CBR 320kbps | RAR | 521 mb
Genre: blues, R&B, doo-wop

He Got Out His Big Ten Inch: A Cornucopia of Risque R&B, Rude Blues and Double-Entendre Doo-Wop is a 3CD box set released by Indigo/Sanctuary in 2004. These songs were dirty long before the term rock'n'roll was originated for a music genre, with various songs about rock hard penises and moist vaginas, all spoken in metaphor. Some of these songs were made famous through other means, used in motion pictures or including Aerosmith's 1975 cover of "Big Ten Inch Record".

If you could not tell by the song titles, this is a box set consisting of songs that offended many who heard it, and excited those who knew the reasons for singing them. Each of these songs were publicly released, and pretty much set the pace for that nasty music called rock'n'roll.

The box set, featuring an appropriate 78 tracks, celebrates the girth of the big ten inch record. Considering the tone of the music, each of the three discs could have had 23 tracks.

VA - He Got Out His Big Ten Inch: A Cornucopia of Risque R&B, Rude Blues and Double-Entendre Doo-Wop (3CD) (2004) **[RE-UP]**

DISC 1 - 'Cause You're Dirty
01 - Georgia Tom & Jane Lucas - Terrible Operation Blues
02 - Lucille Bogan - Coffee Grindin' Blues
03 - Roosevelt Sykes - Honey Dripper
04 - Blind Boy Fuller - What's That Smells Like Fish
05 - Barrelhouse Annie - If It Don't Fit (Don't Force It)
06 - Washboard Sam - I'm Gonna Keep My Hair Parted
07 - Bo Carter - Ram Rod Daddy
08 - Hannah May - Pussy Cat, Pussy Cat
09 - Walter Davis - Think You Need a Shot
10 - Napoleon Fletcher - She Showed It All
11 - Lonnie Johnson - Wipe It Off
12 - Lil Johnson - Meat Balls
13 - Kokomo Arnold - 'Cause You're Dirty
14 - George Hannah - Boy in the Boat
15 - Mississippi Sheiks - Driving That Thing
16 - Louise Johnson - On the Wall
17 - Arthur McKay - She Squeezed My Lemon
18 - Big Bill Broonzy - Horny Frog
19 - Jimmie Gordon - She Sells Good Meat
20 - Lillie Mae Kirkman - He's Just My Size
21 - St. Louis Jimmy - Pipe Layin' Blues
22 - Hunter & Jenkins - Lollypop
23 - Isabel Sykes - In Here With Your Heavy Stuff
24 - Kansas Joe - My Wash Woman's Gone
25 - Buddy Woods - Don't Sell It (Don't Give It Away)
26 - Kansas City Kitty & Georgia Tom - Show Me What You Got

DISC 2 - What's That I Smell
01 - Mae Glover - Gas Man Blues
02 - Cow Cow Davenport - I'm Gonna Tell You In Front So You Won't Feel Hurt Behind
03 - Bo Carter - Don't Mash My Digger So Deep
04 - Memphis Minnie - My Butcher Man
05 - Barbecue Bob - She Shook Her Gin
06 - Walter Davis - Poor Grinder Blues
07 - Georgia Tom & Jane Lucas - What's That I Smell
08 - Papa Charlie Jackson - Shave 'Em Dry
09 - Dorothy Baker - Steady Grinding Blues
10 - R.T. Hanen - She's Got Jordan River in Her Hips
11 - Jesse James - Sweet Petunia
12 - Lucille Bogan - Struttin' My Stuff
13 - Carl Rafferty - Dresser With The Drawers
14 - Kansas City Kitty & Georgia Tom - Fish House Blues
15 - Memphis Jug Band - Take Your Finger Off It
16 - Jimmie Gordon - Little Red Dress (Mary Usta Wear)
17 - Victoria Spivey - One Hour Mama
18 - Roosevelt Sykes - Hard Lead Pencil
19 - Tampa Red - Let Me Play With Your Poodle
20 - Georgia Pine Boy - One More Greasing
21 - Stella Johnson - Don't Come Over
22 - Little Boy Fuller - Bed Springs Blues
23 - Brownie McGhee - Auto Mechanic Blues
24 - Marylin Scott - I Got What My Daddy Likes
25 - Ralph Willis - Boar Hog Blues
26 - Champion Jack Dupree - I'm A Doctor For Women

DISC 3 - Bicycle Tillie
01 - Bull Moose Jackson - Big Ten Inch
02 - John Lee Hooker - I'm A Boogie Man
03 - Julia Lee - Don't Come Too Soon
04 - Amos Milburn - Pool Playing Blues
05 - Walter Brown - Gonna Play With Your Woman
06 - Floyd Dixon - Too Much Jelly Roll
07 - Rosetta Howard - Too Many Drivers
08 - Tiny Bradshaw - I'm A Hi-Ballin' Daddy
09 - Robert Henry - Something's Wrong With My Little Machine
10 - Helen Humes - I'm Gonna Let Him Ride
11 - Danny Taylor - Coffee Daddy Blues.
12 - Wynonie Harris - Keep On Churning (Til The Butter Comes)
13 - Fats Noel - Ride, Daddy, Ride
14 - The Sharps & Flats - I Knew He Would
15 - Dorothy Ellis - Drill, Daddy, Drill
16 - Roy Brown - Butcher Pete
17 - Lonnie Johnson - Jelly Roll Baker
18 - Fluffy Hunter - The Walkin' Blues
19 - Todd Rhodes - Rocket 69
20 - Pete 'Guitar' Lewis - Chocolate Pork Chop Man
21 - The Sultans - Lemon Squeezing Daddy
22 - Julia Lee - Do You Want It
23 - Billy Ward & The Dominoes - Sixty Minute Man
24 - John Lee Hooker - Too Much Boogie
25 - Eunice Davis - Work, Daddy, Work
26 - The Swallows - Bicycle Tillie

EAC extraction logfile from 6. May 2006, 9:11 for CD
Various / He Got Out His Big Ten Inch (Disc 1)

Used drive : LITE-ON DVDRW SOHW-1633S Adapter: 0 ID: 0
Read mode : Secure with NO C2, accurate stream, disable cache
Read offset correction : 12
Overread into Lead-In and Lead-Out : No

Used output format : Internal WAV Routines
44.100 Hz; 16 Bit; Stereo

Other options :
Fill up missing offset samples with silence : Yes
Delete leading and trailing silent blocks : No
Installed external ASPI interface


Track 1
Filename D:\FLAC\VA - He Got Out His Big Ten Inch (3CD) (2004) [FLAC]\Disc 1 - 'Cause You're Dirty\01 - Georgia Tom & Jane Lucas - Terrible Operation Blues.wav

Pre-gap length 0:00:02.00

Peak level 100.0 %
Track quality 99.9 %
Test CRC FB30123E
Copy CRC FB30123E
Copy OK

Track 2
Filename D:\FLAC\VA - He Got Out His Big Ten Inch (3CD) (2004) [FLAC]\Disc 1 - 'Cause You're Dirty\02 - Lucille Bogan - Coffee Grindin' Blues.wav

Pre-gap length 0:00:01.76

Peak level 97.7 %
Track quality 100.0 %
Test CRC C0F0F936
Copy CRC C0F0F936
Copy OK

Track 3
Filename D:\FLAC\VA - He Got Out His Big Ten Inch (3CD) (2004) [FLAC]\Disc 1 - 'Cause You're Dirty\03 - Roosevelt Sykes - Honey Dripper.wav

Pre-gap length 0:00:01.76

Peak level 95.5 %
Track quality 100.0 %
Test CRC FC22E431
Copy CRC FC22E431
Copy OK

Track 4
Filename D:\FLAC\VA - He Got Out His Big Ten Inch (3CD) (2004) [FLAC]\Disc 1 - 'Cause You're Dirty\04 - Blind Boy Fuller - What's That Smells Like Fish.wav

Pre-gap length 0:00:01.76

Peak level 89.1 %
Track quality 100.0 %
Test CRC 53479F72
Copy CRC 53479F72
Copy OK

Track 5
Filename D:\FLAC\VA - He Got Out His Big Ten Inch (3CD) (2004) [FLAC]\Disc 1 - 'Cause You're Dirty\05 - Barrelhouse Annie - If It Don't Fit (Don't Force It).wav

Pre-gap length 0:00:01.77

Peak level 74.5 %
Track quality 100.0 %
Test CRC EE2AA630
Copy CRC EE2AA630
Copy OK

Track 6
Filename D:\FLAC\VA - He Got Out His Big Ten Inch (3CD) (2004) [FLAC]\Disc 1 - 'Cause You're Dirty\06 - Washboard Sam - I'm Gonna Keep My Hair Parted.wav

Pre-gap length 0:00:01.78

Peak level 77.3 %
Track quality 100.0 %
Test CRC 6D4E4747
Copy CRC 6D4E4747
Copy OK

Track 7
Filename D:\FLAC\VA - He Got Out His Big Ten Inch (3CD) (2004) [FLAC]\Disc 1 - 'Cause You're Dirty\07 - Bo Carter - Ram Rod Daddy.wav

Pre-gap length 0:00:01.77

Peak level 100.0 %
Track quality 100.0 %
Test CRC 2CA8F54C
Copy CRC 2CA8F54C
Copy OK

Track 8
Filename D:\FLAC\VA - He Got Out His Big Ten Inch (3CD) (2004) [FLAC]\Disc 1 - 'Cause You're Dirty\08 - Hannah May - Pussy Cat, Pussy Cat.wav

Pre-gap length 0:00:01.76

Peak level 77.3 %
Track quality 100.0 %
Test CRC E7F1238D
Copy CRC E7F1238D
Copy OK

Track 9
Filename D:\FLAC\VA - He Got Out His Big Ten Inch (3CD) (2004) [FLAC]\Disc 1 - 'Cause You're Dirty\09 - Walter Davis - Think You Need a Shot.wav

Pre-gap length 0:00:01.74

Peak level 100.0 %
Track quality 100.0 %
Test CRC E151A6CF
Copy CRC E151A6CF
Copy OK

Track 10
Filename D:\FLAC\VA - He Got Out His Big Ten Inch (3CD) (2004) [FLAC]\Disc 1 - 'Cause You're Dirty\10 - Napoleon Fletcher - She Showed It All.wav

Pre-gap length 0:00:01.76

Peak level 100.0 %
Track quality 100.0 %
Test CRC 00C74B92
Copy CRC 00C74B92
Copy OK

Track 11
Filename D:\FLAC\VA - He Got Out His Big Ten Inch (3CD) (2004) [FLAC]\Disc 1 - 'Cause You're Dirty\11 - Lonnie Johnson - Wipe It Off.wav

Pre-gap length 0:00:01.77

Peak level 100.0 %
Track quality 99.9 %
Test CRC 30B8D01A
Copy CRC 30B8D01A
Copy OK

Track 12
Filename D:\FLAC\VA - He Got Out His Big Ten Inch (3CD) (2004) [FLAC]\Disc 1 - 'Cause You're Dirty\12 - Lil Johnson - Meat Balls.wav

Pre-gap length 0:00:01.77

Peak level 100.0 %
Track quality 100.0 %
Test CRC 16FF5729
Copy CRC 16FF5729
Copy OK

Track 13
Filename D:\FLAC\VA - He Got Out His Big Ten Inch (3CD) (2004) [FLAC]\Disc 1 - 'Cause You're Dirty\13 - Kokomo Arnold - 'Cause You're Dirty.wav

Pre-gap length 0:00:01.76

Peak level 100.0 %
Track quality 99.9 %
Test CRC DD8CA0C2
Copy CRC DD8CA0C2
Copy OK

Track 14
Filename D:\FLAC\VA - He Got Out His Big Ten Inch (3CD) (2004) [FLAC]\Disc 1 - 'Cause You're Dirty\14 - George Hannah - Boy in the Boat.wav

Pre-gap length 0:00:01.76

Peak level 100.0 %
Track quality 100.0 %
Test CRC 19BCF9A9
Copy CRC 19BCF9A9
Copy OK

Track 15
Filename D:\FLAC\VA - He Got Out His Big Ten Inch (3CD) (2004) [FLAC]\Disc 1 - 'Cause You're Dirty\15 - Mississippi Sheiks - Driving That Thing.wav

Pre-gap length 0:00:01.78

Peak level 87.9 %
Track quality 100.0 %
Test CRC 1EA10B20
Copy CRC 1EA10B20
Copy OK

Track 16
Filename D:\FLAC\VA - He Got Out His Big Ten Inch (3CD) (2004) [FLAC]\Disc 1 - 'Cause You're Dirty\16 - Louise Johnson - On the Wall.wav

Pre-gap length 0:00:01.74

Peak level 100.0 %
Track quality 100.0 %
Test CRC 6FBA3129
Copy CRC 6FBA3129
Copy OK

Track 17
Filename D:\FLAC\VA - He Got Out His Big Ten Inch (3CD) (2004) [FLAC]\Disc 1 - 'Cause You're Dirty\17 - Arthur McKay - She Squeezed My Lemon.wav

Pre-gap length 0:00:01.76

Peak level 100.0 %
Track quality 99.9 %
Test CRC C8407B13
Copy CRC C8407B13
Copy OK

Track 18
Filename D:\FLAC\VA - He Got Out His Big Ten Inch (3CD) (2004) [FLAC]\Disc 1 - 'Cause You're Dirty\18 - Big Bill Broonzy - Horny Frog.wav

Pre-gap length 0:00:01.76

Peak level 100.0 %
Track quality 100.0 %
Test CRC 258797AB
Copy CRC 258797AB
Copy OK

Track 19
Filename D:\FLAC\VA - He Got Out His Big Ten Inch (3CD) (2004) [FLAC]\Disc 1 - 'Cause You're Dirty\19 - Jimmie Gordon - She Sells Good Meat.wav

Pre-gap length 0:00:01.77

Peak level 100.0 %
Track quality 100.0 %
Test CRC EFE50574
Copy CRC EFE50574
Copy OK

Track 20
Filename D:\FLAC\VA - He Got Out His Big Ten Inch (3CD) (2004) [FLAC]\Disc 1 - 'Cause You're Dirty\20 - Lillie Mae Kirkman - He's Just My Size.wav

Pre-gap length 0:00:01.76

Peak level 100.0 %
Track quality 100.0 %
Test CRC 21B04BF8
Copy CRC 21B04BF8
Copy OK

Track 21
Filename D:\FLAC\VA - He Got Out His Big Ten Inch (3CD) (2004) [FLAC]\Disc 1 - 'Cause You're Dirty\21 - St. Louis Jimmy - Pipe Layin' Blues.wav

Pre-gap length 0:00:01.76

Peak level 97.8 %
Track quality 99.9 %
Test CRC 83E828CD
Copy CRC 83E828CD
Copy OK

Track 22
Filename D:\FLAC\VA - He Got Out His Big Ten Inch (3CD) (2004) [FLAC]\Disc 1 - 'Cause You're Dirty\22 - Hunter & Jenkins - Lollypop.wav

Pre-gap length 0:00:01.76

Peak level 92.0 %
Track quality 100.0 %
Test CRC 66FAEB0E
Copy CRC 66FAEB0E
Copy OK

Track 23
Filename D:\FLAC\VA - He Got Out His Big Ten Inch (3CD) (2004) [FLAC]\Disc 1 - 'Cause You're Dirty\23 - Isabel Sykes - In Here With Your Heavy Stuff.wav

Pre-gap length 0:00:01.77

Peak level 95.0 %
Track quality 99.9 %
Test CRC 312A1B10
Copy CRC 312A1B10
Copy OK

Track 24
Filename D:\FLAC\VA - He Got Out His Big Ten Inch (3CD) (2004) [FLAC]\Disc 1 - 'Cause You're Dirty\24 - Kansas Joe - My Wash Woman's Gone.wav

Pre-gap length 0:00:01.76

Peak level 96.4 %
Track quality 99.9 %
Test CRC CA8A3145
Copy CRC CA8A3145
Copy OK

Track 25
Filename D:\FLAC\VA - He Got Out His Big Ten Inch (3CD) (2004) [FLAC]\Disc 1 - 'Cause You're Dirty\25 - Buddy Woods - Don't Sell It (Don't Give It Away).wav

Pre-gap length 0:00:01.77

Peak level 85.6 %
Track quality 99.9 %
Test CRC A29A6601
Copy CRC A29A6601
Copy OK

Track 26
Filename D:\FLAC\VA - He Got Out His Big Ten Inch (3CD) (2004) [FLAC]\Disc 1 - 'Cause You're Dirty\26 - Kansas City Kitty & Georgia Tom - Show Me What You Got.wav

Pre-gap length 0:00:01.76

Peak level 70.7 %
Track quality 100.0 %
Test CRC 4137170E
Copy CRC 4137170E
Copy OK

No errors occured


End of status report

–-

EAC extraction logfile from 6. May 2006, 11:05 for CD
Various / He Got Out His Big Ten Inch (Disc 2)

Used drive : LITE-ON DVDRW SOHW-1633S Adapter: 0 ID: 0
Read mode : Secure with NO C2, accurate stream, disable cache
Read offset correction : 12
Overread into Lead-In and Lead-Out : No

Used output format : Internal WAV Routines
44.100 Hz; 16 Bit; Stereo

Other options :
Fill up missing offset samples with silence : Yes
Delete leading and trailing silent blocks : No
Installed external ASPI interface


Track 1
Filename D:\FLAC\VA - He Got Out His Big Ten Inch (3CD) (2004) [FLAC]\Disc 2 - What's That I Smell\01 - Mae Glover - Gas Man Blues.wav

Pre-gap length 0:00:02.00

Peak level 92.6 %
Track quality 100.0 %
Test CRC 0C0D181E
Copy CRC 0C0D181E
Copy OK

Track 2
Filename D:\FLAC\VA - He Got Out His Big Ten Inch (3CD) (2004) [FLAC]\Disc 2 - What's That I Smell\02 - Cow Cow Davenport - I'm Gonna Tell You In Front So You Won't Feel Hurt Behind.wav

Pre-gap length 0:00:01.78

Peak level 93.9 %
Track quality 100.0 %
Test CRC 5E4AADD7
Copy CRC 5E4AADD7
Copy OK

Track 3
Filename D:\FLAC\VA - He Got Out His Big Ten Inch (3CD) (2004) [FLAC]\Disc 2 - What's That I Smell\03 - Bo Carter - Don't Mash My Digger So Deep.wav

Pre-gap length 0:00:01.77

Peak level 100.0 %
Track quality 100.0 %
Test CRC 8A14178A
Copy CRC 8A14178A
Copy OK

Track 4
Filename D:\FLAC\VA - He Got Out His Big Ten Inch (3CD) (2004) [FLAC]\Disc 2 - What's That I Smell\04 - Memphis Minnie - My Butcher Man.wav

Pre-gap length 0:00:01.76

Peak level 100.0 %
Track quality 99.9 %
Test CRC 99FD409E
Copy CRC 99FD409E
Copy OK

Track 5
Filename D:\FLAC\VA - He Got Out His Big Ten Inch (3CD) (2004) [FLAC]\Disc 2 - What's That I Smell\05 - Barbecue Bob - She Shook Her Gin.wav

Pre-gap length 0:00:01.77

Peak level 100.0 %
Track quality 100.0 %
Test CRC 8C04C4DB
Copy CRC 8C04C4DB
Copy OK

Track 6
Filename D:\FLAC\VA - He Got Out His Big Ten Inch (3CD) (2004) [FLAC]\Disc 2 - What's That I Smell\06 - Walter Davis - Poor Grinder Blues.wav

Pre-gap length 0:00:01.76

Peak level 100.0 %
Track quality 100.0 %
Test CRC 05473DB6
Copy CRC 05473DB6
Copy OK

Track 7
Filename D:\FLAC\VA - He Got Out His Big Ten Inch (3CD) (2004) [FLAC]\Disc 2 - What's That I Smell\07 - Georgia Tom & Jane Lucas - What's That I Smell.wav

Pre-gap length 0:00:01.80

Peak level 100.0 %
Track quality 100.0 %
Test CRC FC51372D
Copy CRC FC51372D
Copy OK

Track 8
Filename D:\FLAC\VA - He Got Out His Big Ten Inch (3CD) (2004) [FLAC]\Disc 2 - What's That I Smell\08 - Papa Charlie Jackson - Shave 'Em Dry.wav

Pre-gap length 0:00:01.76

Peak level 100.0 %
Track quality 100.0 %
Test CRC F4270C2C
Copy CRC F4270C2C
Copy OK

Track 9
Filename D:\FLAC\VA - He Got Out His Big Ten Inch (3CD) (2004) [FLAC]\Disc 2 - What's That I Smell\09 - Dorothy Baker - Steady Grinding Blues.wav

Pre-gap length 0:00:01.74

Peak level 100.0 %
Track quality 99.9 %
Test CRC 10086AA4
Copy CRC 10086AA4
Copy OK

Track 10
Filename D:\FLAC\VA - He Got Out His Big Ten Inch (3CD) (2004) [FLAC]\Disc 2 - What's That I Smell\10 - R.T. Hanen - She's Got Jordan River in Her Hips.wav

Pre-gap length 0:00:01.74

Peak level 100.0 %
Track quality 99.9 %
Test CRC C859932F
Copy CRC C859932F
Copy OK

Track 11
Filename D:\FLAC\VA - He Got Out His Big Ten Inch (3CD) (2004) [FLAC]\Disc 2 - What's That I Smell\11 - Jesse James - Sweet Petunia.wav

Pre-gap length 0:00:01.72

Peak level 97.9 %
Track quality 100.0 %
Test CRC 12008677
Copy CRC 12008677
Copy OK

Track 12
Filename D:\FLAC\VA - He Got Out His Big Ten Inch (3CD) (2004) [FLAC]\Disc 2 - What's That I Smell\12 - Lucille Bogan - Struttin' My Stuff.wav

Pre-gap length 0:00:01.77

Peak level 76.6 %
Track quality 100.0 %
Test CRC BACD9C06
Copy CRC BACD9C06
Copy OK

Track 13
Filename D:\FLAC\VA - He Got Out His Big Ten Inch (3CD) (2004) [FLAC]\Disc 2 - What's That I Smell\13 - Carl Rafferty - Dresser With The Drawers.wav

Pre-gap length 0:00:01.80

Peak level 94.6 %
Track quality 99.9 %
Test CRC 0FE1CA8F
Copy CRC 0FE1CA8F
Copy OK

Track 14
Filename D:\FLAC\VA - He Got Out His Big Ten Inch (3CD) (2004) [FLAC]\Disc 2 - What's That I Smell\14 - Kansas City Kitty & Georgia Tom - Fish House Blues.wav

Pre-gap length 0:00:01.73

Peak level 73.4 %
Track quality 99.9 %
Test CRC 3D6478AE
Copy CRC 3D6478AE
Copy OK

Track 15
Filename D:\FLAC\VA - He Got Out His Big Ten Inch (3CD) (2004) [FLAC]\Disc 2 - What's That I Smell\15 - Memphis Jug Band - Take Your Finger Off It.wav

Pre-gap length 0:00:01.78

Peak level 100.0 %
Track quality 99.9 %
Test CRC BA520BC7
Copy CRC BA520BC7
Copy OK

Track 16
Filename D:\FLAC\VA - He Got Out His Big Ten Inch (3CD) (2004) [FLAC]\Disc 2 - What's That I Smell\16 - Jimmie Gordon - Little Red Dress (Mary Usta Wear).wav

Pre-gap length 0:00:01.73

Peak level 86.6 %
Track quality 100.0 %
Test CRC 25EAF511
Copy CRC 25EAF511
Copy OK

Track 17
Filename D:\FLAC\VA - He Got Out His Big Ten Inch (3CD) (2004) [FLAC]\Disc 2 - What's That I Smell\17 - Victoria Spivey - One Hour Mama.wav

Pre-gap length 0:00:01.80

Peak level 77.2 %
Track quality 100.0 %
Test CRC 2D43F0CE
Copy CRC 2D43F0CE
Copy OK

Track 18
Filename D:\FLAC\VA - He Got Out His Big Ten Inch (3CD) (2004) [FLAC]\Disc 2 - What's That I Smell\18 - Roosevelt Sykes - Hard Lead Pencil.wav

Pre-gap length 0:00:01.76

Peak level 86.0 %
Track quality 100.0 %
Test CRC 3B8C326F
Copy CRC 3B8C326F
Copy OK

Track 19
Filename D:\FLAC\VA - He Got Out His Big Ten Inch (3CD) (2004) [FLAC]\Disc 2 - What's That I Smell\19 - Tampa Red - Let Me Play With Your Poodle.wav

Pre-gap length 0:00:01.80

Peak level 78.9 %
Track quality 100.0 %
Test CRC 82777086
Copy CRC 82777086
Copy OK

Track 20
Filename D:\FLAC\VA - He Got Out His Big Ten Inch (3CD) (2004) [FLAC]\Disc 2 - What's That I Smell\20 - Georgia Pine Boy - One More Greasing.wav

Pre-gap length 0:00:01.77

Peak level 77.8 %
Track quality 100.0 %
Test CRC 3156B4A3
Copy CRC 3156B4A3
Copy OK

Track 21
Filename D:\FLAC\VA - He Got Out His Big Ten Inch (3CD) (2004) [FLAC]\Disc 2 - What's That I Smell\21 - Stella Johnson - Don't Come Over.wav

Pre-gap length 0:00:01.76

Peak level 99.9 %
Track quality 99.9 %
Test CRC 58019D3D
Copy CRC 58019D3D
Copy OK

Track 22
Filename D:\FLAC\VA - He Got Out His Big Ten Inch (3CD) (2004) [FLAC]\Disc 2 - What's That I Smell\22 - Little Boy Fuller - Bed Springs Blues.wav

Pre-gap length 0:00:01.78

Peak level 100.0 %
Track quality 100.0 %
Test CRC B8582223
Copy CRC B8582223
Copy OK

Track 23
Filename D:\FLAC\VA - He Got Out His Big Ten Inch (3CD) (2004) [FLAC]\Disc 2 - What's That I Smell\23 - Brownie McGhee - Auto Mechanic Blues.wav

Pre-gap length 0:00:01.77

Peak level 72.9 %
Track quality 100.0 %
Test CRC 937AA7DA
Copy CRC 937AA7DA
Copy OK

Track 24
Filename D:\FLAC\VA - He Got Out His Big Ten Inch (3CD) (2004) [FLAC]\Disc 2 - What's That I Smell\24 - Marylin Scott - I Got What My Daddy Likes.wav

Pre-gap length 0:00:01.74

Peak level 94.9 %
Track quality 100.0 %
Test CRC 374E09CF
Copy CRC 374E09CF
Copy OK

Track 25
Filename D:\FLAC\VA - He Got Out His Big Ten Inch (3CD) (2004) [FLAC]\Disc 2 - What's That I Smell\25 - Ralph Willis - Boar Hog Blues.wav

Pre-gap length 0:00:01.78

Peak level 100.0 %
Track quality 100.0 %
Test CRC 2AC43622
Copy CRC 2AC43622
Copy OK

Track 26
Filename D:\FLAC\VA - He Got Out His Big Ten Inch (3CD) (2004) [FLAC]\Disc 2 - What's That I Smell\26 - Champion Jack Dupree - I'm A Doctor For Women.wav

Pre-gap length 0:00:01.77

Peak level 77.6 %
Track quality 100.0 %
Test CRC D66F1649
Copy CRC D66F1649
Copy OK

No errors occured


End of status report

–-

EAC extraction logfile from 6. May 2006, 12:50 for CD
Various / He Got Out His Big Ten Inch (Disc 3)

Used drive : LITE-ON DVDRW SOHW-1633S Adapter: 0 ID: 0
Read mode : Secure with NO C2, accurate stream, disable cache
Read offset correction : 12
Overread into Lead-In and Lead-Out : No

Used output format : Internal WAV Routines
44.100 Hz; 16 Bit; Stereo

Other options :
Fill up missing offset samples with silence : Yes
Delete leading and trailing silent blocks : No
Installed external ASPI interface


Track 1
Filename D:\FLAC\VA - He Got Out His Big Ten Inch (3CD) (2004) [FLAC]\Disc 3 - Bicycle Tillie\01 - Bull Moose Jackson - Big Ten Inch.wav

Pre-gap length 0:00:02.00

Peak level 92.6 %
Track quality 100.0 %
Test CRC 9666C6C3
Copy CRC 9666C6C3
Copy OK

Track 2
Filename D:\FLAC\VA - He Got Out His Big Ten Inch (3CD) (2004) [FLAC]\Disc 3 - Bicycle Tillie\02 - John Lee Hooker - I'm A Boogie Man.wav

Pre-gap length 0:00:01.77

Peak level 80.8 %
Track quality 100.0 %
Test CRC 51766544
Copy CRC 51766544
Copy OK

Track 3
Filename D:\FLAC\VA - He Got Out His Big Ten Inch (3CD) (2004) [FLAC]\Disc 3 - Bicycle Tillie\03 - Julia Lee - Don't Come Too Soon.wav

Pre-gap length 0:00:01.77

Peak level 99.9 %
Track quality 99.9 %
Test CRC 4E085A8C
Copy CRC 4E085A8C
Copy OK

Track 4
Filename D:\FLAC\VA - He Got Out His Big Ten Inch (3CD) (2004) [FLAC]\Disc 3 - Bicycle Tillie\04 - Amos Milburn - Pool Playing Blues.wav

Pre-gap length 0:00:01.77

Peak level 90.7 %
Track quality 100.0 %
Test CRC 42197EF0
Copy CRC 42197EF0
Copy OK

Track 5
Filename D:\FLAC\VA - He Got Out His Big Ten Inch (3CD) (2004) [FLAC]\Disc 3 - Bicycle Tillie\05 - Walter Brown - Gonna Play With Your Woman.wav

Pre-gap length 0:00:01.80

Peak level 100.0 %
Track quality 99.9 %
Test CRC E4B1E439
Copy CRC E4B1E439
Copy OK

Track 6
Filename D:\FLAC\VA - He Got Out His Big Ten Inch (3CD) (2004) [FLAC]\Disc 3 - Bicycle Tillie\06 - Floyd Dixon - Too Much Jelly Roll.wav

Pre-gap length 0:00:01.76

Peak level 68.5 %
Track quality 100.0 %
Test CRC E1964280
Copy CRC E1964280
Copy OK

Track 7
Filename D:\FLAC\VA - He Got Out His Big Ten Inch (3CD) (2004) [FLAC]\Disc 3 - Bicycle Tillie\07 - Rosetta Howard - Too Many Drivers.wav

Pre-gap length 0:00:01.80

Peak level 96.8 %
Track quality 99.9 %
Test CRC 3BFBF546
Copy CRC 3BFBF546
Copy OK

Track 8
Filename D:\FLAC\VA - He Got Out His Big Ten Inch (3CD) (2004) [FLAC]\Disc 3 - Bicycle Tillie\08 - Tiny Bradshaw - I'm A Hi-Ballin' Daddy.wav

Pre-gap length 0:00:01.80

Peak level 93.8 %
Track quality 100.0 %
Test CRC 8BEE2791
Copy CRC 8BEE2791
Copy OK

Track 9
Filename D:\FLAC\VA - He Got Out His Big Ten Inch (3CD) (2004) [FLAC]\Disc 3 - Bicycle Tillie\09 - Robert Henry - Something's Wrong With My Little Machine.wav

Pre-gap length 0:00:01.80

Peak level 82.7 %
Track quality 100.0 %
Test CRC 35C88E4F
Copy CRC 35C88E4F
Copy OK

Track 10
Filename D:\FLAC\VA - He Got Out His Big Ten Inch (3CD) (2004) [FLAC]\Disc 3 - Bicycle Tillie\10 - Helen Humes - I'm Gonna Let Him Ride.wav

Pre-gap length 0:00:01.78

Peak level 76.0 %
Track quality 100.0 %
Test CRC 75F7587B
Copy CRC 75F7587B
Copy OK

Track 11
Filename D:\FLAC\VA - He Got Out His Big Ten Inch (3CD) (2004) [FLAC]\Disc 3 - Bicycle Tillie\11 - Danny Taylor - Coffee Daddy Blues.wav

Pre-gap length 0:00:01.76

Peak level 79.9 %
Track quality 99.9 %
Test CRC 551EF00A
Copy CRC 551EF00A
Copy OK

Track 12
Filename D:\FLAC\VA - He Got Out His Big Ten Inch (3CD) (2004) [FLAC]\Disc 3 - Bicycle Tillie\12 - Wynonie Harris - Keep On Churning (Til The Butter Comes).wav

Pre-gap length 0:00:01.72

Peak level 81.7 %
Track quality 100.0 %
Test CRC 00D2D3F4
Copy CRC 00D2D3F4
Copy OK

Track 13
Filename D:\FLAC\VA - He Got Out His Big Ten Inch (3CD) (2004) [FLAC]\Disc 3 - Bicycle Tillie\13 - Fats Noel - Ride, Daddy, Ride.wav

Pre-gap length 0:00:01.74

Peak level 81.5 %
Track quality 99.9 %
Test CRC 1B81C07F
Copy CRC 1B81C07F
Copy OK

Track 14
Filename D:\FLAC\VA - He Got Out His Big Ten Inch (3CD) (2004) [FLAC]\Disc 3 - Bicycle Tillie\14 - The Sharps & Flats - I Knew He Would.wav

Pre-gap length 0:00:01.72

Peak level 89.5 %
Track quality 99.9 %
Test CRC 6D1E3A3F
Copy CRC 6D1E3A3F
Copy OK

Track 15
Filename D:\FLAC\VA - He Got Out His Big Ten Inch (3CD) (2004) [FLAC]\Disc 3 - Bicycle Tillie\15 - Dorothy Ellis - Drill, Daddy, Drill.wav

Pre-gap length 0:00:01.78

Peak level 100.0 %
Track quality 100.0 %
Test CRC 71570F6A
Copy CRC 71570F6A
Copy OK

Track 16
Filename D:\FLAC\VA - He Got Out His Big Ten Inch (3CD) (2004) [FLAC]\Disc 3 - Bicycle Tillie\16 - Roy Brown - Butcher Pete.wav

Pre-gap length 0:00:01.80

Peak level 80.7 %
Track quality 100.0 %
Test CRC 56E431B1
Copy CRC 56E431B1
Copy OK

Track 17
Filename D:\FLAC\VA - He Got Out His Big Ten Inch (3CD) (2004) [FLAC]\Disc 3 - Bicycle Tillie\17 - Lonnie Johnson - Jelly Roll Baker.wav

Pre-gap length 0:00:01.78

Peak level 79.8 %
Track quality 100.0 %
Test CRC 98A178BB
Copy CRC 98A178BB
Copy OK

Track 18
Filename D:\FLAC\VA - He Got Out His Big Ten Inch (3CD) (2004) [FLAC]\Disc 3 - Bicycle Tillie\18 - Fluffy Hunter - The Walkin' Blues.wav

Pre-gap length 0:00:01.81

Peak level 91.5 %
Track quality 100.0 %
Test CRC 8A7F9DD9
Copy CRC 8A7F9DD9
Copy OK

Track 19
Filename D:\FLAC\VA - He Got Out His Big Ten Inch (3CD) (2004) [FLAC]\Disc 3 - Bicycle Tillie\19 - Todd Rhodes - Rocket 69.wav

Pre-gap length 0:00:01.78

Peak level 84.4 %
Track quality 100.0 %
Test CRC FF6C0BFB
Copy CRC FF6C0BFB
Copy OK

Track 20
Filename D:\FLAC\VA - He Got Out His Big Ten Inch (3CD) (2004) [FLAC]\Disc 3 - Bicycle Tillie\20 - Pete 'Guitar' Lewis - Chocolate Pork Chop Man.wav

Pre-gap length 0:00:01.74

Peak level 70.5 %
Track quality 100.0 %
Test CRC A89BC108
Copy CRC A89BC108
Copy OK

Track 21
Filename D:\FLAC\VA - He Got Out His Big Ten Inch (3CD) (2004) [FLAC]\Disc 3 - Bicycle Tillie\21 - The Sultans - Lemon Squeezing Daddy.wav

Pre-gap length 0:00:01.74

Peak level 100.0 %
Track quality 100.0 %
Test CRC 48AC3F5A
Copy CRC 48AC3F5A
Copy OK

Track 22
Filename D:\FLAC\VA - He Got Out His Big Ten Inch (3CD) (2004) [FLAC]\Disc 3 - Bicycle Tillie\22 - Julia Lee - Do You Want It.wav

Pre-gap length 0:00:01.68

Peak level 94.4 %
Track quality 100.0 %
Test CRC CF886F7F
Copy CRC CF886F7F
Copy OK

Track 23
Filename D:\FLAC\VA - He Got Out His Big Ten Inch (3CD) (2004) [FLAC]\Disc 3 - Bicycle Tillie\23 - Billy Ward & The Dominoes - Sixty Minute Man.wav

Pre-gap length 0:00:01.78

Peak level 97.6 %
Track quality 100.0 %
Test CRC 10F6751B
Copy CRC 10F6751B
Copy OK

Track 24
Filename D:\FLAC\VA - He Got Out His Big Ten Inch (3CD) (2004) [FLAC]\Disc 3 - Bicycle Tillie\24 - John Lee Hooker - Too Much Boogie.wav

Pre-gap length 0:00:01.76

Peak level 78.8 %
Track quality 100.0 %
Test CRC 05D45FED
Copy CRC 05D45FED
Copy OK

Track 25
Filename D:\FLAC\VA - He Got Out His Big Ten Inch (3CD) (2004) [FLAC]\Disc 3 - Bicycle Tillie\25 - Eunice Davis - Work, Daddy, Work.wav

Pre-gap length 0:00:01.72

Peak level 80.3 %
Track quality 99.9 %
Test CRC 6B9B46DE
Copy CRC 6B9B46DE
Copy OK

Track 26
Filename D:\FLAC\VA - He Got Out His Big Ten Inch (3CD) (2004) [FLAC]\Disc 3 - Bicycle Tillie\26 - The Swallows - Bicycle Tillie.wav

Pre-gap length 0:00:01.72

Peak level 82.3 %
Track quality 100.0 %
Test CRC 4B2618F1
Copy CRC 4B2618F1
Copy OK

No errors occured


End of status report


VA - He Got Out His Big Ten Inch: A Cornucopia of Risque R&B, Rude Blues and Double-Entendre Doo-Wop (3CD) (2004) **[RE-UP]**