Subcategories

Hans Zimmer & Benjamin Wallfisch - Blade Runner 2049 (2017)

Posted By: Aregak
Hans Zimmer & Benjamin Wallfisch - Blade Runner 2049  (2017)

Hans Zimmer & Benjamin Wallfisch - Blade Runner 2049 (Original Motion Picture Soundtrack) (2017)
EAC Rip | FLAC, TRACKS+CUE, LOG, Covers | 00:35:10 + 00:58:18 = 01:33:28 | 460.76 MB
Score | Label: Epic/Alcon Sleeping Giant/Sony Music / 19075803092

The Blade Runner 2049 soundtrack, which features new music from Hans Zimmer and Benjamin Wallfisch, be released October 5th via Alcon Sleeping Giant Records, Pitchfork reports. Along with Zimmer and Wallfisch's score, the soundtrack will feature an original song from singer Lauren Daigle, "Almost Human." A handful of classic songs from Frank Sinatra and Elvis Presley will also appear on the record, including the former's "Summer Wind" and the latter's "Suspicious Minds."

Zimmer and Wallfisch have worked on several films together including Dunkirk and Hidden Figures, but the pair weren't originally slated to score Blade Runner 2049. Icelandic composer Jóhann Jóhannsson was attached to the film first, though director Denis Villeneuve recently told Al Arabiya that the pair decided to split because Villeneuve wanted a score that was closer to the one Vangelis composed for Blade Runner.

Blade Runner 2049 is set 30 years after Ridley Scott's 1982 original. Ryan Gosling stars as Officer K, who unearths a dangerous secret that forces him to track down Harrison Ford's iconic Rick Deckard, a former LAPD blade runner who's been missing for decades. The film opens October 6th.
Track Listings:
CD1
01. Hans Zimmer & Benjamin Wallfisch - 2049 (3:37)
02. Hans Zimmer & Benjamin Wallfisch - Sapper's Tree (1:36)
03. Hans Zimmer & Benjamin Wallfisch - Flight to LAPD (1:47)
04. Frank Sinatra - Summer Wind (2:56)
05. Hans Zimmer & Benjamin Wallfisch - Rain (2:26)
06. Hans Zimmer & Benjamin Wallfisch - Wallace (5:23)
07. Hans Zimmer & Benjamin Wallfisch - Memory (2:29)
08. Hans Zimmer & Benjamin Wallfisch - Mesa (3:10)
09. Hans Zimmer & Benjamin Wallfisch - Orphanage (1:13)
10. Hans Zimmer & Benjamin Wallfisch - Furnace (3:40)
11. Hans Zimmer & Benjamin Wallfisch - Someone Lived This (3:02)
12. Hans Zimmer & Benjamin Wallfisch - Joi (3:51)

CD2
01. Hans Zimmer & Benjamin Wallfisch - Pilot (2:17)
02. Elvis Presley - Suspicious Minds (4:23)
03. Elvis Presley & The Jordanaires - Can't Help Falling in Love (3:03)
04. Frank Sinatra - One for My Baby (And One More for the Road) (4:25)
05. Hans Zimmer & Benjamin Wallfisch - Hijack (5:32)
06. Hans Zimmer & Benjamin Wallfisch - That's Why We Believe (3:36)
07. Hans Zimmer & Benjamin Wallfisch - Her Eyes Were Green (6:11)
08. Hans Zimmer & Benjamin Wallfisch - Sea Wall (9:52)
09. Hans Zimmer & Benjamin Wallfisch - All the Best Memories Are Hers (3:22)
10. Hans Zimmer & Benjamin Wallfisch - Tears in the Rain (2:10)
11. Hans Zimmer & Benjamin Wallfisch - Blade Runner (10:05)
12. Lauren Daigle - Almost Human (3:22)


Exact Audio Copy V1.3 from 2. September 2016

EAC extraction logfile from 18. November 2017, 12:13

Hans Zimmer & Benjamin Wallfisch / Blade Runner 2049

Used drive : PLEXTOR CD-R PX-230A Adapter: 1 ID: 0

Read mode : Secure
Utilize accurate stream : Yes
Defeat audio cache : Yes
Make use of C2 pointers : No

Read offset correction : 738
Overread into Lead-In and Lead-Out : No
Fill up missing offset samples with silence : Yes
Delete leading and trailing silent blocks : No
Null samples used in CRC calculations : Yes
Used interface : Native Win32 interface for Win NT & 2000
Gap handling : Appended to previous track

Used output format : User Defined Encoder
Selected bitrate : 1024 kBit/s
Quality : High
Add ID3 tag : No
Command line compressor : C:\Program Files\Exact Audio Copy\Flac\flac.exe
Additional command line options : -6 -V -T "ARTIST=%artist%" -T "TITLE=%title%" -T "ALBUM=%albumtitle%" -T "DATE=%year%" -T "TRACKNUMBER=%tracknr%" -T "GENRE=%genre%" -T "COMMENT=%comment%" -T "ALBUMARTIST=%albuminterpret%" -T "COMPOSER=%composer%" -T "DISCNUMBER=%cdnumber%" -T "TOTALDISCS=%totalcds%" -T "TOTALTRACKS=%numtracks%" %source% -o %dest%


TOC of the extracted CD

Track | Start | Length | Start sector | End sector
––––––––––––––––––––––––––––-
1 | 0:00.00 | 3:37.00 | 0 | 16274
2 | 3:37.00 | 1:36.00 | 16275 | 23474
3 | 5:13.00 | 1:47.00 | 23475 | 31499
4 | 7:00.00 | 2:55.65 | 31500 | 44689
5 | 9:55.65 | 2:26.00 | 44690 | 55639
6 | 12:21.65 | 5:23.00 | 55640 | 79864
7 | 17:44.65 | 2:28.64 | 79865 | 91028
8 | 20:13.54 | 3:10.00 | 91029 | 105278
9 | 23:23.54 | 1:13.00 | 105279 | 110753
10 | 24:36.54 | 3:39.41 | 110754 | 127219
11 | 28:16.20 | 3:01.60 | 127220 | 140854
12 | 31:18.05 | 3:51.02 | 140855 | 158181


Track 1

Filename C:\Ripped by Filex\01 - Hans Zimmer & Benjamin Wallfisch - 2049.wav

Pre-gap length 0:00:02.00

Peak level 99.7 %
Extraction speed 2.8 X
Track quality 100.0 %
Test CRC 5269B490
Copy CRC 5269B490
Track not present in AccurateRip database
Copy OK

Track 2

Filename C:\Ripped by Filex\02 - Hans Zimmer & Benjamin Wallfisch - Sapper's Tree.wav

Peak level 99.7 %
Extraction speed 2.7 X
Track quality 100.0 %
Test CRC BEFEA728
Copy CRC BEFEA728
Track not present in AccurateRip database
Copy OK

Track 3

Filename C:\Ripped by Filex\03 - Hans Zimmer & Benjamin Wallfisch - Flight to LAPD.wav

Peak level 99.7 %
Extraction speed 2.9 X
Track quality 100.0 %
Test CRC 74DA514F
Copy CRC 74DA514F
Track not present in AccurateRip database
Copy OK

Track 4

Filename C:\Ripped by Filex\04 - Frank Sinatra - Summer Wind.wav

Peak level 87.9 %
Extraction speed 2.9 X
Track quality 100.0 %
Test CRC 14079BA8
Copy CRC 14079BA8
Track not present in AccurateRip database
Copy OK

Track 5

Filename C:\Ripped by Filex\05 - Hans Zimmer & Benjamin Wallfisch - Rain.wav

Pre-gap length 0:00:01.72

Peak level 46.2 %
Extraction speed 2.6 X
Track quality 100.0 %
Test CRC 442341F2
Copy CRC 442341F2
Track not present in AccurateRip database
Copy OK

Track 6

Filename C:\Ripped by Filex\06 - Hans Zimmer & Benjamin Wallfisch - Wallace.wav

Peak level 99.7 %
Extraction speed 2.8 X
Track quality 99.9 %
Test CRC 241D1AA7
Copy CRC 241D1AA7
Track not present in AccurateRip database
Copy OK

Track 7

Filename C:\Ripped by Filex\07 - Hans Zimmer & Benjamin Wallfisch - Memory.wav

Peak level 99.7 %
Extraction speed 2.8 X
Track quality 100.0 %
Test CRC A8636CE8
Copy CRC A8636CE8
Track not present in AccurateRip database
Copy OK

Track 8

Filename C:\Ripped by Filex\08 - Hans Zimmer & Benjamin Wallfisch - Mesa.wav

Peak level 99.7 %
Extraction speed 2.9 X
Track quality 100.0 %
Test CRC 14AFFB11
Copy CRC 14AFFB11
Track not present in AccurateRip database
Copy OK

Track 9

Filename C:\Ripped by Filex\09 - Hans Zimmer & Benjamin Wallfisch - Orphanage.wav

Peak level 99.7 %
Extraction speed 2.4 X
Track quality 100.0 %
Test CRC 829D21B8
Copy CRC 829D21B8
Track not present in AccurateRip database
Copy OK

Track 10

Filename C:\Ripped by Filex\10 - Hans Zimmer & Benjamin Wallfisch - Furnace.wav

Peak level 99.7 %
Extraction speed 2.8 X
Track quality 100.0 %
Test CRC 25FE41D3
Copy CRC 25FE41D3
Track not present in AccurateRip database
Copy OK

Track 11

Filename C:\Ripped by Filex\11 - Hans Zimmer & Benjamin Wallfisch - Someone Lived This.wav

Peak level 99.7 %
Extraction speed 2.7 X
Track quality 100.0 %
Test CRC CE1FE001
Copy CRC CE1FE001
Track not present in AccurateRip database
Copy OK

Track 12

Filename C:\Ripped by Filex\12 - Hans Zimmer & Benjamin Wallfisch - Joi.wav

Peak level 99.7 %
Extraction speed 2.8 X
Track quality 100.0 %
Test CRC 0A4102B8
Copy CRC 0A4102B8
Track not present in AccurateRip database
Copy OK


None of the tracks are present in the AccurateRip database

No errors occurred

End of status report

–– CUETools DB Plugin V2.1.6

[CTDB TOCID: 3vYMNwBQSqTFmCNWTqEbGwcOwK8-] found
Submit result: 3vYMNwBQSqTFmCNWTqEbGwcOwK8- has been confirmed
Track | CTDB Status
1 | (14/14) Accurately ripped
2 | (14/14) Accurately ripped
3 | (14/14) Accurately ripped
4 | (14/14) Accurately ripped
5 | (14/14) Accurately ripped
6 | (14/14) Accurately ripped
7 | (14/14) Accurately ripped
8 | (14/14) Accurately ripped
9 | (14/14) Accurately ripped
10 | (14/14) Accurately ripped
11 | (14/14) Accurately ripped
12 | (14/14) Accurately ripped


==== Log checksum A7393D10CBC25C63D8E72C5D5DAB22698E11A537FEADA430A43C2FE8995A70AE ====



Exact Audio Copy V1.3 from 2. September 2016

EAC extraction logfile from 18. November 2017, 13:07

Hans Zimmer & Benjamin Wallfisch / Blade Runner 2049

Used drive : PLEXTOR CD-R PX-230A Adapter: 1 ID: 0

Read mode : Secure
Utilize accurate stream : Yes
Defeat audio cache : Yes
Make use of C2 pointers : No

Read offset correction : 738
Overread into Lead-In and Lead-Out : No
Fill up missing offset samples with silence : Yes
Delete leading and trailing silent blocks : No
Null samples used in CRC calculations : Yes
Used interface : Native Win32 interface for Win NT & 2000
Gap handling : Appended to previous track

Used output format : User Defined Encoder
Selected bitrate : 1024 kBit/s
Quality : High
Add ID3 tag : No
Command line compressor : C:\Program Files\Exact Audio Copy\Flac\flac.exe
Additional command line options : -6 -V -T "ARTIST=%artist%" -T "TITLE=%title%" -T "ALBUM=%albumtitle%" -T "DATE=%year%" -T "TRACKNUMBER=%tracknr%" -T "GENRE=%genre%" -T "COMMENT=%comment%" -T "ALBUMARTIST=%albuminterpret%" -T "COMPOSER=%composer%" -T "DISCNUMBER=%cdnumber%" -T "TOTALDISCS=%totalcds%" -T "TOTALTRACKS=%numtracks%" %source% -o %dest%


TOC of the extracted CD

Track | Start | Length | Start sector | End sector
––––––––––––––––––––––––––––-
1 | 0:00.00 | 2:17.00 | 0 | 10274
2 | 2:17.00 | 4:22.56 | 10275 | 29980
3 | 6:39.56 | 3:03.13 | 29981 | 43718
4 | 9:42.69 | 4:24.64 | 43719 | 63582
5 | 14:07.58 | 5:32.00 | 63583 | 88482
6 | 19:39.58 | 3:36.00 | 88483 | 104682
7 | 23:15.58 | 6:11.26 | 104683 | 132533
8 | 29:27.09 | 9:52.00 | 132534 | 176933
9 | 39:19.09 | 3:22.00 | 176934 | 192083
10 | 42:41.09 | 2:10.00 | 192084 | 201833
11 | 44:51.09 | 10:05.00 | 201834 | 247208
12 | 54:56.09 | 3:22.03 | 247209 | 262361


Track 1

Filename C:\Ripped by Filex\01 - Hans Zimmer & Benjamin Wallfisch - Pilot.wav

Pre-gap length 0:00:02.00

Peak level 99.7 %
Extraction speed 2.6 X
Track quality 100.0 %
Test CRC 6FCA8808
Copy CRC 6FCA8808
Track not present in AccurateRip database
Copy OK

Track 2

Filename C:\Ripped by Filex\02 - Elvis Presley - Suspicious Minds.wav

Peak level 100.0 %
Extraction speed 2.8 X
Track quality 100.0 %
Test CRC 4BF0F05B
Copy CRC 4BF0F05B
Track not present in AccurateRip database
Copy OK

Track 3

Filename C:\Ripped by Filex\03 - Elvis Presley & The Jordanaires - Can't Help Falling in Love.wav

Pre-gap length 0:00:00.56

Peak level 84.7 %
Extraction speed 2.7 X
Track quality 100.0 %
Test CRC EBA817A7
Copy CRC EBA817A7
Track not present in AccurateRip database
Copy OK

Track 4

Filename C:\Ripped by Filex\04 - Frank Sinatra - One for My Baby (And One More for the Road).wav

Pre-gap length 0:00:01.12

Peak level 91.7 %
Extraction speed 3.2 X
Track quality 100.0 %
Test CRC 21B9C99A
Copy CRC 21B9C99A
Track not present in AccurateRip database
Copy OK

Track 5

Filename C:\Ripped by Filex\05 - Hans Zimmer & Benjamin Wallfisch - Hijack.wav

Pre-gap length 0:00:00.63

Peak level 99.7 %
Extraction speed 3.1 X
Track quality 99.9 %
Test CRC 6C8884F3
Copy CRC 6C8884F3
Track not present in AccurateRip database
Copy OK

Track 6

Filename C:\Ripped by Filex\06 - Hans Zimmer & Benjamin Wallfisch - That's Why We Believe.wav

Peak level 99.7 %
Extraction speed 3.1 X
Track quality 100.0 %
Test CRC 9AE8F86B
Copy CRC 9AE8F86B
Track not present in AccurateRip database
Copy OK

Track 7

Filename C:\Ripped by Filex\07 - Hans Zimmer & Benjamin Wallfisch - Her Eyes Were Green.wav

Peak level 99.7 %
Extraction speed 3.3 X
Track quality 100.0 %
Test CRC F33B4A6B
Copy CRC F33B4A6B
Track not present in AccurateRip database
Copy OK

Track 8

Filename C:\Ripped by Filex\08 - Hans Zimmer & Benjamin Wallfisch - Sea Wall.wav

Peak level 99.7 %
Extraction speed 3.2 X
Track quality 100.0 %
Test CRC 05AB65BB
Copy CRC 05AB65BB
Track not present in AccurateRip database
Copy OK

Track 9

Filename C:\Ripped by Filex\09 - Hans Zimmer & Benjamin Wallfisch - All the Best Memories Are Hers.wav

Peak level 99.7 %
Extraction speed 3.0 X
Track quality 100.0 %
Test CRC 7E2402D2
Copy CRC 7E2402D2
Track not present in AccurateRip database
Copy OK

Track 10

Filename C:\Ripped by Filex\10 - Hans Zimmer & Benjamin Wallfisch - Tears in the Rain.wav

Peak level 99.7 %
Extraction speed 2.9 X
Track quality 100.0 %
Test CRC D90079EF
Copy CRC D90079EF
Track not present in AccurateRip database
Copy OK

Track 11

Filename C:\Ripped by Filex\11 - Hans Zimmer & Benjamin Wallfisch - Blade Runner.wav

Peak level 99.7 %
Extraction speed 3.2 X
Track quality 100.0 %
Test CRC FC93D23B
Copy CRC FC93D23B
Track not present in AccurateRip database
Copy OK

Track 12

Filename C:\Ripped by Filex\12 - Lauren Daigle - Almost Human.wav

Peak level 99.7 %
Extraction speed 3.0 X
Track quality 100.0 %
Test CRC 67AD0DA7
Copy CRC 67AD0DA7
Track not present in AccurateRip database
Copy OK


None of the tracks are present in the AccurateRip database

No errors occurred

End of status report

–– CUETools DB Plugin V2.1.6

[CTDB TOCID: KaFjfYGiDKgRSeA8LXv2nhP5VeU-] found
Submit result: KaFjfYGiDKgRSeA8LXv2nhP5VeU- has been confirmed
Track | CTDB Status
1 | (15/15) Accurately ripped
2 | (15/15) Accurately ripped
3 | (15/15) Accurately ripped
4 | (15/15) Accurately ripped
5 | (15/15) Accurately ripped
6 | (15/15) Accurately ripped
7 | (15/15) Accurately ripped
8 | (15/15) Accurately ripped
9 | (15/15) Accurately ripped
10 | (15/15) Accurately ripped
11 | (15/15) Accurately ripped
12 | (15/15) Accurately ripped


==== Log checksum 72F7C03EB65C33CEF9D45BE330B93E20A71EBA3E0EE7A434048D57D6AF6B6FFB ====